img image001 image001 image001 image001 image001 image001 image001 image001 image001 image001 image001 image001 image001 image001 image001

Planets Sun Sun Sun
Статистика раздачи
Автор: Nickolas3434 | Размер: 3.32 ГБ | Добавлен: 09 сен 2015
Раздают: 233    Качают: 23
Скачать торрент
Скачать торрент
Описание торрента

СообщениеДобавлено: 09 сен 2015 


Информация о фильме
Название: Узник замка Иф
Год выхода: 1988
Жанр: Драма, Приключения, История
Режиссер: Георгий Юнгвальд-Хилькевич
В ролях: Виктор Авилов, Евгений Дворжецкий, Алексей Петренко, Анна Самохина, Михаил Боярский, Надира Мирзаева, Алексей Жарков, Светлана Смирнова, Яна Поплавская, Игорь Скляр, Владимир Стеклов, Всеволод Шиловский, Наталья Цыганкова, Игорь Богодух, Елена Чекан
О фильме: Приключенческий фильм в трех частях: "Аббат Фариа", "Граф Монте-Кристо" и "Аз воздам" - по мотивам романа Александра Дюма "Граф Монте-Кристо". В самый канун свадьбы с любимой девушкой Эдмон Дантес по ложному обвинению становится узником мрачного замка Иф. Здесь ему предстоит томиться до конца дней своих. Но отчаянная решимость спастись и счастливый случай помогают ему выбраться на волю. Сказочно разбогатев и превратившись в графа Монте-Кристо, он начинает своё возмездие...
Страна: СССР
Продолжительность: 3 x ~ 01:14:00
Перевод: не требуется
Файл
Кодек: MKV
Качество: DVDRip-AVC
Видео: MPEG-4 AVC, ~ 1900 Кбит/с, 720x564@768x564
Звук: AC3, 2 ch, 192 Кбит/с

Общее
Уникальный идентификатор : 228238955363601335390641967957387454511 (0xABB5394EF50EE4D8BE9E3CB8BFFB282F)
Полное имя : R:МОИ РИПЫУзник замка Иф_1988-DVDRip-AVCУзник замка Иф-1.mkv
Формат : Matroska
Версия формата : Version 2
Размер файла : 973 Мбайт
Продолжительность : 1 ч. 4 м.
Общий поток : 2095 Кбит/сек
Дата кодирования : UTC 2014-08-10 22:03:03
Программа кодирования : mkvmerge v5.2.0 ('I can't explain') built on Dec 18 2011 18:12:03
Библиотека кодирования : libebml v1.2.3 + libmatroska v1.3.0
Видео
Идентификатор : 1
Формат : AVC
Формат/Информация : Advanced Video Codec
Профиль формата : High@L4.1
Параметр CABAC формата : Да
Параметр ReFrames формата : 16 кадров
Идентификатор кодека : V_MPEG4/ISO/AVC
Продолжительность : 1 ч. 4 м.
Битрейт : 1901 Кбит/сек
Ширина : 720 пикселей
Высота : 564 пикселя
Соотношение сторон : 4:3
Режим частоты кадров : Постоянный
Частота кадров : 25,000 кадров/сек
Цветовое пространство : YUV
Субдискретизация насыщенности : 4:2:0
Битовая глубина : 8 бит
Тип развёртки : Прогрессивная
Бит/(Пиксели*Кадры) : 0.187
Размер потока : 865 Мбайт (89%)
Библиотека кодирования : x264 core 142 r2431 ac76440
Настройки программы : cabac=1 / ref=16 / deblock=1:-2:-2 / analyse=0x3:0x133 / me=umh / subme=10 / psy=1 / psy_rd=1.10:0.20 / mixed_ref=1 / me_range=24 / chroma_me=1 / trellis=2 / 8x8dct=1 / cqm=0 / deadzone=21,11 / fast_pskip=0 / chroma_qp_offset=-3 / threads=12 / lookahead_threads=3 / sliced_threads=0 / nr=0 / decimate=0 / interlaced=0 / bluray_compat=0 / constrained_intra=0 / bframes=16 / b_pyramid=2 / b_adapt=2 / b_bias=0 / direct=3 / weightb=1 / open_gop=0 / weightp=2 / keyint=250 / keyint_min=25 / scenecut=40 / intra_refresh=0 / rc_lookahead=60 / rc=2pass / mbtree=1 / bitrate=1901 / ratetol=1.0 / qcomp=0.65 / qpmin=0 / qpmax=39 / qpstep=4 / cplxblur=20.0 / qblur=0.5 / ip_ratio=1.40 / aq=1:1.00
Язык : English
Default : Да
Forced : Нет
Основные цвета : BT.601 PAL
Характеристики трансфера : BT.470 System B, BT.470 System G
Коэффициенты матрицы : BT.601
Аудио
Идентификатор : 2
Формат : AC-3
Формат/Информация : Audio Coding 3
Расширение режима : CM (complete main)
Параметр Endianness формата : Big
Идентификатор кодека : A_AC3
Продолжительность : 1 ч. 4 м.
Вид битрейта : Постоянный
Битрейт : 192 Кбит/сек
Каналы : 2 канала
Расположение каналов : Front: L R
Частота : 48,0 КГц
Битовая глубина : 16 бит
Метод сжатия : С потерями
Размер потока : 89,2 Мбайт (9%)
Язык : Russian
Default : Да
Forced : Нет

Релиз от:
Автор релиза:



   Похожие торренты   Торрент   Размер 
В этой теме нет новых непрочитанных сообщений. Узник замка Иф (1988) DVDRip

36 | 12

3.53 ГБ

В этой теме нет новых непрочитанных сообщений. Узник замка Иф (1988) DVDRip-AVC

305 | 64

1.8 ГБ

В этой теме нет новых непрочитанных сообщений. Узник замка Иф (1988) DVDRip | КПК

127 | 17

1.21 ГБ

В этой теме нет новых непрочитанных сообщений. Узник замка Иф (1988) DVDRip от FREEISLAND

69 | 10

3.94 ГБ

В этой теме нет новых непрочитанных сообщений. Узник замка Иф (1988) DVD9

215 | 14

12.4 ГБ

В этой теме нет новых непрочитанных сообщений. Узник замка Иф (1988) DVD9

46 | 16

7.03 ГБ

В этой теме нет новых непрочитанных сообщений. Тайна Карпатского замка (Таинственный замок в Карпатах) / Tajemstvi hradu v Karpatech (1981) DVDRip - ExKinoRay

1 | 1

1.41 ГБ




Вы не можете начинать темы
Вы не можете отвечать на сообщения
Вы не можете редактировать свои сообщения
Вы не можете удалять свои сообщения
Вы не можете добавлять вложения

Перейти:  
Для Мосгорсуда, Роскомнадзора и рекламодателей: mosgorsud-torrent[собачка]yandex.ru
 Вход
ppkBB3cker v.2 © 2008-2014 @ PPK
[ Time : 0.027s | 14 Queries | GZIP : Off ]

Торрент трекер RUTOR.IN, Не можете зайти на rutor.org? Какой новый адрес рутор? Какое зеркало рутор? Не работает rutor.org и зеркала? Тогда наш торрент специально для вас. Rutor.in неофициальное зеркало rutor. В случае если у Вас заблокирован rutor или вдруг Вы не можете на него зайти, то Вы без труда сможете скачать бесплатно и без рекламы последние новинки кино, игр, сериалов и прочего у нас, на Rutor.in. Не нужно использовать прокси, чтобы зайти на рутор, достаточно воспользоваться нашим ресурсом. Все новые фильмы, игры, сериалы, книги и музыка за 2013 и 2014 годы через торрент бесплатно. Скачивайте фильмы в хорошем качестве, игры для пк, xbox, playstation без регистрации. У нас вы найдете новые Зарубежные сериалы и Русские сериалы 2013, 2014, 2015 годов. Оставайтесь с нами, качайте любимые фильмы, игры, сериалы, книги и музыку.