img image001 image001 image001 image001 image001 image001 image001 image001 image001 image001 image001 image001 image001 image001 image001

Planets Sun Sun Sun
Статистика раздачи
Автор: Nickolas3434 | Размер: 1.22 ГБ | Добавлен: 10 сен 2015
Раздают: 113    Качают: 4
Скачать торрент
Скачать торрент
Описание торрента

СообщениеДобавлено: 10 сен 2015 


Информация о фильме
Название: Вертикаль
Год выхода: 1966
Жанр: Приключения, драма
Режиссер: Борис Дуров, Станислав Говорухин
В ролях: Владимир Высоцкий, Маргарита Кошелева, Геннадий Воропаев, Александр Фадеев, Георгий Кульбуш, Лариса Лужина, Бухути Закариадзе, Расми Джабраилов, Светлана Живанкова
О фильме: Группе альпинистов, идущих на штурм непокоренной кавказской вершины, пика Ор-Тау, послан сигнал о немедленном возвращении: надвигается грозовой циклон. Связист скрывает от товарищей это предупреждение, и они оказываются в критической ситуации. Трагедии удается избежать только благодаря мужеству спасателей и опыту самих спортсменов…
Страна: СССР
Продолжительность: 01:12:48
Перевод: не требуется
Файл
Кодек: MKV
Качество: DVDRip-AVC
Видео: MPEG-4 AVC, 1700 Кбит/с, 668x362@792x362
Звук: AC3, 6 ch, 448 Кбит/с, AC3, 2 ch, 224 Кбит/с

Общее
Уникальный идентификатор : 232785616194684823778982429852513486773 (0xAF20E0FE9ECD64499D44B4BE4E1647B5)
Полное имя : D:Вертикаль_1966-DVDRip-AVC.mkv
Формат : Matroska
Версия формата : Version 2
Размер файла : 1,22 Гбайт
Продолжительность : 1 ч. 12 м.
Общий поток : 2406 Кбит/сек
Дата кодирования : UTC 2015-09-09 16:38:32
Программа кодирования : mkvmerge v5.8.0 ('No Sleep / Pillow') built on Sep 2 2012 15:37:04
Библиотека кодирования : libebml v1.2.3 + libmatroska v1.3.0
Видео
Идентификатор : 1
Формат : AVC
Формат/Информация : Advanced Video Codec
Профиль формата : High@L4.1
Параметр CABAC формата : Да
Параметр ReFrames формата : 15 кадров
Идентификатор кодека : V_MPEG4/ISO/AVC
Продолжительность : 1 ч. 12 м.
Битрейт : 1700 Кбит/сек
Ширина : 668 пикселей
Высота : 362 пикселя
Соотношение сторон : 2,2:1
Соотношение сторон в оригинале : 2,2:1
Режим частоты кадров : Постоянный
Частота кадров : 25,000 кадров/сек
Цветовое пространство : YUV
Субдискретизация насыщенности : 4:2:0
Битовая глубина : 8 бит
Тип развёртки : Прогрессивная
Бит/(Пиксели*Кадры) : 0.281
Размер потока : 861 Мбайт (69%)
Библиотека кодирования : x264 core 146 r2538 121396c
Настройки программы : cabac=1 / ref=15 / deblock=1:-2:-2 / analyse=0x3:0x133 / me=umh / subme=10 / psy=1 / psy_rd=0.90:0.05 / mixed_ref=1 / me_range=32 / chroma_me=1 / trellis=2 / 8x8dct=1 / cqm=0 / deadzone=21,11 / fast_pskip=0 / chroma_qp_offset=-3 / threads=12 / lookahead_threads=2 / sliced_threads=0 / nr=0 / decimate=0 / interlaced=0 / bluray_compat=0 / constrained_intra=0 / bframes=8 / b_pyramid=2 / b_adapt=2 / b_bias=0 / direct=3 / weightb=1 / open_gop=0 / weightp=2 / keyint=250 / keyint_min=25 / scenecut=40 / intra_refresh=0 / rc=2pass / mbtree=0 / bitrate=1700 / ratetol=1.0 / qcomp=0.65 / qpmin=0 / qpmax=45 / qpstep=4 / cplxblur=20.0 / qblur=0.5 / ip_ratio=1.40 / pb_ratio=1.30 / aq=1:1.00
Язык : English
Default : Да
Forced : Нет
Основные цвета : BT.601 NTSC
Характеристики трансфера : BT.601
Коэффициенты матрицы : BT.601
Аудио #1
Идентификатор : 2
Формат : AC-3
Формат/Информация : Audio Coding 3
Расширение режима : CM (complete main)
Параметр Endianness формата : Big
Идентификатор кодека : A_AC3
Продолжительность : 1 ч. 12 м.
Вид битрейта : Постоянный
Битрейт : 448 Кбит/сек
Каналы : 6 каналов
Расположение каналов : Front: L C R, Side: L R, LFE
Частота : 48,0 КГц
Битовая глубина : 16 бит
Метод сжатия : С потерями
Размер потока : 233 Мбайт (19%)
Язык : Russian
Default : Да
Forced : Нет
Аудио #2
Идентификатор : 3
Формат : AC-3
Формат/Информация : Audio Coding 3
Профиль формата : Dolby Digital
Расширение режима : CM (complete main)
Параметр Endianness формата : Big
Идентификатор кодека : A_AC3
Продолжительность : 1 ч. 12 м.
Вид битрейта : Постоянный
Битрейт : 256 Кбит/сек
Каналы : 2 канала
Расположение каналов : Front: L R
Частота : 48,0 КГц
Битовая глубина : 16 бит
Метод сжатия : С потерями
Размер потока : 133 Мбайт (11%)
Язык : Russian
Default : Нет
Forced : Нет

Релиз от:
Автор релиза:



   Похожие торренты   Торрент   Размер 
В этой теме нет новых непрочитанных сообщений. Вертикаль (1966) DVDRip

230 | 13

1.37 ГБ

В этой теме нет новых непрочитанных сообщений. Вертикаль (1966) DVDRip от FilmRus

244 | 8

1.09 ГБ

В этой теме нет новых непрочитанных сообщений. Вертикаль (1966) DVDRip от Шкипер

40 | 2

743.49 МБ

В этой теме нет новых непрочитанных сообщений. Вертикаль (1966) DVD9

5 | 5

6.45 ГБ

В этой теме нет новых непрочитанных сообщений. Республика ШКИД (1966) DVDRip-AVC от ExKinoRay

911 | 36

1.49 ГБ

В этой теме нет новых непрочитанных сообщений. Аппалуза / The Appaloosa (1966) DVDRip от ExKinoRay

4 | 12

1.47 ГБ

В этой теме нет новых непрочитанных сообщений. Зимнее утро (1966) DVDRip от ExKinoRay

48 | 7

1.46 ГБ




Вы не можете начинать темы
Вы не можете отвечать на сообщения
Вы не можете редактировать свои сообщения
Вы не можете удалять свои сообщения
Вы не можете добавлять вложения

Перейти:  
Для Мосгорсуда, Роскомнадзора и рекламодателей: mosgorsud-torrent[собачка]yandex.ru
 Вход
ppkBB3cker v.2 © 2008-2014 @ PPK
[ Time : 0.340s | 14 Queries | GZIP : Off ]

Торрент трекер RUTOR.IN, Не можете зайти на rutor.org? Какой новый адрес рутор? Какое зеркало рутор? Не работает rutor.org и зеркала? Тогда наш торрент специально для вас. Rutor.in неофициальное зеркало rutor. В случае если у Вас заблокирован rutor или вдруг Вы не можете на него зайти, то Вы без труда сможете скачать бесплатно и без рекламы последние новинки кино, игр, сериалов и прочего у нас, на Rutor.in. Не нужно использовать прокси, чтобы зайти на рутор, достаточно воспользоваться нашим ресурсом. Все новые фильмы, игры, сериалы, книги и музыка за 2013 и 2014 годы через торрент бесплатно. Скачивайте фильмы в хорошем качестве, игры для пк, xbox, playstation без регистрации. У нас вы найдете новые Зарубежные сериалы и Русские сериалы 2013, 2014, 2015 годов. Оставайтесь с нами, качайте любимые фильмы, игры, сериалы, книги и музыку.