img image001 image001 image001 image001 image001 image001 image001 image001 image001 image001 image001 image001 image001 image001 image001

Planets Sun Sun Sun
Статистика раздачи
Автор: Nickolas3434 | Размер: 2.17 ГБ | Добавлен: 10 сен 2015
Раздают: 531    Качают: 18
Скачать торрент
Скачать торрент
Описание торрента

СообщениеДобавлено: 10 сен 2015 


Информация о фильме
Название: Гараж
Год выхода: 1979
Жанр: Драма, комедия
Режиссер: Эльдар Рязанов
В ролях: Лия Ахеджакова, Ия Саввина, Светлана Немоляева, Валентин Гафт, Андрей Мягков, Георгий Бурков, Леонид Марков, Вячеслав Невинный, Анастасия Вознесенская, Семен Фарада, Игорь Костолевский, Ольга Остроумова, Глеб Стриженов, Борислав Брондуков, Наталья Гурзо, Алла Будницкая, Вадим Захарченко, Михаил Кокшенов, Эдьдар Рязанов...
О фильме: На заседании гаражного кооператива предстоит выбрать четырех «крайних», которые должны сами отказаться от будущего собственного гаража. Что чувствуешь, голосуя за список отверженных, в котором нет твоей фамилии? Неловкость и облегчение. А если фамилия есть? Смирись, ведь все уже согласовано. Но произошел бунт…
Страна: СССР
Продолжительность: 01:35:35
Перевод: не требуется
Файл
Кодек: MKV
Качество: DVDRip-AVC
Видео: MPEG-4 AVC, 2575 Кбит/с, 716x558@764x558
Звук: AC3, 6 ch, 448 Кбит/с, AC3, 1 ch, 224 Кбит/с

raw [info]: 716x558p 16:15 @ 25/1 fps (cfr)
x264 [info]: using SAR=16/15
x264 [info]: using cpu capabilities: MMX2 SSE2Fast SSSE3 SSE4.2 AVX
x264 [info]: profile High, level 4.1
x264 [info]: frame I:984 Avg QP:17.14 size: 73127
x264 [info]: frame P:34271 Avg QP:20.47 size: 28778
x264 [info]: frame B:108142 Avg QP:22.39 size: 7288
=============================================================================================================
Общее
Уникальный идентификатор : 242619043647859746630636690443332532855 (0xB686BA6655A2621FB3112B3EBC10BA77)
Полное имя : D:Гараж_1979-DVDRip-AVC.mkv
Формат : Matroska
Версия формата : Version 2
Размер файла : 2,17 Гбайт
Продолжительность : 1 ч. 35 м.
Общий поток : 3249 Кбит/сек
Дата кодирования : UTC 2015-09-10 05:07:49
Программа кодирования : mkvmerge v5.8.0 ('No Sleep / Pillow') built on Sep 2 2012 15:37:04
Библиотека кодирования : libebml v1.2.3 + libmatroska v1.3.0
Видео
Идентификатор : 1
Формат : AVC
Формат/Информация : Advanced Video Codec
Профиль формата : High@L4.1
Параметр CABAC формата : Да
Параметр ReFrames формата : 14 кадров
Идентификатор кодека : V_MPEG4/ISO/AVC
Продолжительность : 1 ч. 35 м.
Битрейт : 2575 Кбит/сек
Ширина : 716 пикселей
Высота : 558 пикселей
Соотношение сторон : 4:3
Режим частоты кадров : Постоянный
Частота кадров : 25,000 кадров/сек
Цветовое пространство : YUV
Субдискретизация насыщенности : 4:2:0
Битовая глубина : 8 бит
Тип развёртки : Прогрессивная
Бит/(Пиксели*Кадры) : 0.258
Размер потока : 1,68 Гбайт (77%)
Библиотека кодирования : x264 core 146 r2538 121396c
Настройки программы : cabac=1 / ref=14 / deblock=1:-2:-2 / analyse=0x3:0x133 / me=umh / subme=10 / psy=1 / psy_rd=1.05:0.07 / mixed_ref=1 / me_range=32 / chroma_me=1 / trellis=2 / 8x8dct=1 / cqm=0 / deadzone=21,11 / fast_pskip=0 / chroma_qp_offset=-3 / threads=12 / lookahead_threads=2 / sliced_threads=0 / nr=0 / decimate=0 / interlaced=0 / bluray_compat=0 / constrained_intra=0 / bframes=7 / b_pyramid=2 / b_adapt=2 / b_bias=0 / direct=3 / weightb=1 / open_gop=0 / weightp=2 / keyint=250 / keyint_min=25 / scenecut=40 / intra_refresh=0 / rc=2pass / mbtree=0 / bitrate=2575 / ratetol=1.0 / qcomp=0.65 / qpmin=0 / qpmax=45 / qpstep=4 / cplxblur=20.0 / qblur=0.5 / ip_ratio=1.40 / pb_ratio=1.30 / aq=1:1.00
Язык : English
Default : Да
Forced : Нет
Основные цвета : BT.601 PAL
Характеристики трансфера : BT.470 System B, BT.470 System G
Коэффициенты матрицы : BT.601
Аудио #1
Идентификатор : 2
Формат : AC-3
Формат/Информация : Audio Coding 3
Расширение режима : CM (complete main)
Параметр Endianness формата : Big
Идентификатор кодека : A_AC3
Продолжительность : 1 ч. 35 м.
Вид битрейта : Постоянный
Битрейт : 448 Кбит/сек
Каналы : 6 каналов
Расположение каналов : Front: L C R, Side: L R, LFE
Частота : 48,0 КГц
Битовая глубина : 16 бит
Метод сжатия : С потерями
Размер потока : 306 Мбайт (14%)
Язык : Russian
Default : Да
Forced : Нет
Аудио #2
Идентификатор : 3
Формат : AC-3
Формат/Информация : Audio Coding 3
Расширение режима : CM (complete main)
Параметр Endianness формата : Big
Идентификатор кодека : A_AC3
Продолжительность : 1 ч. 35 м.
Вид битрейта : Постоянный
Битрейт : 224 Кбит/сек
Каналы : 1 канал
Расположение каналов : Front: C
Частота : 48,0 КГц
Битовая глубина : 16 бит
Метод сжатия : С потерями
Размер потока : 153 Мбайт (7%)
Язык : Russian
Default : Нет
Forced

Релиз от:
Автор релиза:



   Похожие торренты   Торрент   Размер 
В этой теме нет новых непрочитанных сообщений. Гараж (1979) DVDRip

63 | 9

1.45 ГБ

В этой теме нет новых непрочитанных сообщений. Гараж (1979) DVDRip

60 | 7

1.46 ГБ

В этой теме нет новых непрочитанных сообщений. Гараж (1979) DVDRip от New-Team

100 | 12

1.46 ГБ

В этой теме нет новых непрочитанных сообщений. Гараж (1979) DVDRip-AVC от New-Team

248 | 21

1.46 ГБ

В этой теме нет новых непрочитанных сообщений. Гараж (1979) DVDRip от New-Team

112 | 17

744.62 МБ

В этой теме нет новых непрочитанных сообщений. Гараж (1979) DVDRip-AVC от Torrent-Xzona

35 | 5

1.47 ГБ

В этой теме нет новых непрочитанных сообщений. Гараж (1979) DVDRemux | Реставрация

85 | 12

3.64 ГБ




Вы не можете начинать темы
Вы не можете отвечать на сообщения
Вы не можете редактировать свои сообщения
Вы не можете удалять свои сообщения
Вы не можете добавлять вложения

Перейти:  
Для Мосгорсуда, Роскомнадзора и рекламодателей: mosgorsud-torrent[собачка]yandex.ru
 Вход
ppkBB3cker v.2 © 2008-2014 @ PPK
[ Time : 0.062s | 14 Queries | GZIP : Off ]

Торрент трекер RUTOR.IN, Не можете зайти на rutor.org? Какой новый адрес рутор? Какое зеркало рутор? Не работает rutor.org и зеркала? Тогда наш торрент специально для вас. Rutor.in неофициальное зеркало rutor. В случае если у Вас заблокирован rutor или вдруг Вы не можете на него зайти, то Вы без труда сможете скачать бесплатно и без рекламы последние новинки кино, игр, сериалов и прочего у нас, на Rutor.in. Не нужно использовать прокси, чтобы зайти на рутор, достаточно воспользоваться нашим ресурсом. Все новые фильмы, игры, сериалы, книги и музыка за 2013 и 2014 годы через торрент бесплатно. Скачивайте фильмы в хорошем качестве, игры для пк, xbox, playstation без регистрации. У нас вы найдете новые Зарубежные сериалы и Русские сериалы 2013, 2014, 2015 годов. Оставайтесь с нами, качайте любимые фильмы, игры, сериалы, книги и музыку.