img image001 image001 image001 image001 image001 image001 image001 image001 image001 image001 image001 image001 image001 image001 image001

Planets Sun Sun Sun
Статистика раздачи
Автор: Nickolas3434 | Размер: 745.37 МБ | Добавлен: 10 сен 2015
Раздают: 24    Качают: 6
Скачать торрент
Скачать торрент
Описание торрента

СообщениеДобавлено: 10 сен 2015 

Страна: СССР
Производство: Ленфильм
Жанр: семейный
Год выпуска: 1953
Продолжительность: 01:17:00
Перевод: Не требуется
Cубтитры: нет
Оригинальная аудиодорожка: русский
Режиссер: Николай Лебедев
В ролях:
Константин Скоробогатов, Борис Коковкин, Геннадий Мичурин, Владимир Дружников, Анатолий Чемодуров, Юрий Толубеев, Виктор Бирцев, Евгений Новиков, Лев Фричинский, Феликс Яворский, Нина Гребешкова, Василий Меркурьев, Лев Коптев, Юра Лепешкин, Борис Матюшкин...
Полный список актёров
Описание:
По мотивам повести Бориса Изюмского «Алые погоны».
О воспитании будущих офицеров Советской Армии. Новому воспитателю cуворовского училища майору Боканову (Владимир Дружников) сразу же пришлось разбираться в конфликте между воспитанником старшего курса Геннадием Пашковым и его товарищами. Самовлюбленный и эгоистичный Геннадий был заносчив, мог высмеять дружеские отношения между юношей и девушкой, мог подвести товарища. Опыт воспитателя и время меняют поведение зазнавшегося юноши, и ко времени окончания училища его друзья уверены, что Пашков станет хорошим командиром.





Источник: DVD5 R5
Качество видео: DVDRip
Формат видео: AVI
Видео: 640x480 (4:3), 25 fps, XviD ~ 1216 kbps avg, 0.158 bit/pixel
Аудио: 48 kHz, MP3 2.0, 128 kbps
Раздача от:
Общее
Полное имя : Chest.tovarishha.1953.DVDRip-745_[New-team]_by_AVP_Studio.avi
Формат : AVI
Формат/Информация : Audio Video Interleave
Размер файла : 745 Мбайт
Продолжительность : 1 ч. 16 м.
Общий поток : 1354 Кбит/сек
Программа кодирования : VirtualDubMod 1.5.10.3 | www.virtualdub-fr.org || (build 2550/release)
Библиотека кодирования : VirtualDubMod build 2550/release
Видео
Идентификатор : 0
Формат : MPEG-4 Visual
Профиль формата : Advanced Simple@L5
Параметр BVOP формата : 1
Параметр QPel формата : Нет
Параметр GMC формата : Без точки перехода
Параметр матрицы формата : Выборочная
Идентификатор кодека : XVID
Идентификатор кодека/Подсказка : XviD
Продолжительность : 1 ч. 16 м.
Битрейт : 1216 Кбит/сек
Ширина : 640 пикселей
Высота : 480 пикселей
Соотношение сторон : 4:3
Частота кадров : 25,000 кадров/сек
Цветовое пространство : YUV
Субдискретизация насыщенности : 4:2:0
Битовая глубина : 8 бит
Тип развёртки : Прогрессивная
Метод сжатия : С потерями
Бит/(Пиксели*Кадры) : 0.158
Размер потока : 670 Мбайт (90%)
Библиотека кодирования : XviD 73
Аудио
Идентификатор : 1
Формат : MPEG Audio
Версия формата : Version 1
Профиль формата : Layer 3
Идентификатор кодека : 55
Идентификатор кодека/Подсказка : MP3
Продолжительность : 1 ч. 16 м.
Вид битрейта : Постоянный
Битрейт : 128 Кбит/сек
Каналы : 2 канала
Частота : 48,0 КГц
Метод сжатия : С потерями
Размер потока : 70,5 Мбайт (9%)
Выравнивание : Соединение по промежуткам
Продолжительность промежутка : 40 мс. (1,00 видеокадр)
Время предзагрузки промежутка : 504 мс.
Библиотека кодирования : LAME3.99r
Настройки программы : -m s -V 4 -q 2 -lowpass 17 -b 128





   Похожие торренты   Торрент   Размер 
В этой теме нет новых непрочитанных сообщений. Честь товарища (1953) DVDRip от New-Team

14 | 9

1.09 ГБ

В этой теме нет новых непрочитанных сообщений. Честь товарища (1953) DVDRip-AVC от New-Team

29 | 8

1.09 ГБ

В этой теме нет новых непрочитанных сообщений. Три товарища (1935) DVDRip от New-Team

11 | 4

744.93 МБ

В этой теме нет новых непрочитанных сообщений. Три товарища (1935) DVDRip от New-Team

50 | 13

1.09 ГБ

В этой теме нет новых непрочитанных сообщений. Три товарища (1935) DVDRip-AVC от New-Team

23 | 10

1.09 ГБ

В этой теме нет новых непрочитанных сообщений. Три товарища [01-04 из 04] (2012) DVDRip-AVC от New-Team | лицензия

0 | 2

3.13 ГБ

В этой теме нет новых непрочитанных сообщений. Три товарища [01-04 из 04] (2012) DVDRip от New-Team | лицензия

171 | 3

3.14 ГБ




Вы не можете начинать темы
Вы не можете отвечать на сообщения
Вы не можете редактировать свои сообщения
Вы не можете удалять свои сообщения
Вы не можете добавлять вложения

Перейти:  
Для Мосгорсуда, Роскомнадзора и рекламодателей: mosgorsud-torrent[собачка]yandex.ru
 Вход
ppkBB3cker v.2 © 2008-2014 @ PPK
[ Time : 1.326s | 16 Queries | GZIP : On ]

Торрент трекер RUTOR.IN, Не можете зайти на rutor.org? Какой новый адрес рутор? Какое зеркало рутор? Не работает rutor.org и зеркала? Тогда наш торрент специально для вас. Rutor.in неофициальное зеркало rutor. В случае если у Вас заблокирован rutor или вдруг Вы не можете на него зайти, то Вы без труда сможете скачать бесплатно и без рекламы последние новинки кино, игр, сериалов и прочего у нас, на Rutor.in. Не нужно использовать прокси, чтобы зайти на рутор, достаточно воспользоваться нашим ресурсом. Все новые фильмы, игры, сериалы, книги и музыка за 2013 и 2014 годы через торрент бесплатно. Скачивайте фильмы в хорошем качестве, игры для пк, xbox, playstation без регистрации. У нас вы найдете новые Зарубежные сериалы и Русские сериалы 2013, 2014, 2015 годов. Оставайтесь с нами, качайте любимые фильмы, игры, сериалы, книги и музыку.
cron