img image001 image001 image001 image001 image001 image001 image001 image001 image001 image001 image001 image001 image001 image001 image001

Planets Sun Sun Sun
Статистика раздачи
Автор: Nickolas3434 | Размер: 1.09 ГБ | Добавлен: 10 сен 2015
Раздают: 13    Качают: 9
Скачать торрент
Скачать торрент
Описание торрента

СообщениеДобавлено: 10 сен 2015 

Страна: СССР
Производство: Ленфильм
Жанр: семейный
Год выпуска: 1953
Продолжительность: 01:17:00
Перевод: Не требуется
Cубтитры: нет
Оригинальная аудиодорожка: русский
Режиссер: Николай Лебедев
В ролях:
Константин Скоробогатов, Борис Коковкин, Геннадий Мичурин, Владимир Дружников, Анатолий Чемодуров, Юрий Толубеев, Виктор Бирцев, Евгений Новиков, Лев Фричинский, Феликс Яворский, Нина Гребешкова, Василий Меркурьев, Лев Коптев, Юра Лепешкин, Борис Матюшкин...
Полный список актёров
Описание:
По мотивам повести Бориса Изюмского «Алые погоны».
О воспитании будущих офицеров Советской Армии. Новому воспитателю cуворовского училища майору Боканову (Владимир Дружников) сразу же пришлось разбираться в конфликте между воспитанником старшего курса Геннадием Пашковым и его товарищами. Самовлюбленный и эгоистичный Геннадий был заносчив, мог высмеять дружеские отношения между юношей и девушкой, мог подвести товарища. Опыт воспитателя и время меняют поведение зазнавшегося юноши, и ко времени окончания училища его друзья уверены, что Пашков станет хорошим командиром.





Источник: DVD5 R5
Качество видео: DVDRip-AVC
Формат видео: MKV
Видео: 696->762x572 (4:3), 25 fps, H264 ~ 1831 kbps avg, 0.184 bit/pixel
Аудио: 48 kHz, Dolby Digital AC3 2.0, 192 kbps
Раздача от:
Общее
Полное имя : Chest.tovarishha.1953.DVDRip-AVC_[New-team]_by_AVP_Studio.mkv
Формат : Matroska
Версия формата : Version 2
Размер файла : 1,09 Гбайт
Продолжительность : 1 ч. 16 м.
Общий поток : 2025 Кбит/сек
Дата кодирования : UTC 2015-09-02 16:04:33
Программа кодирования : mkvmerge v6.1.0 ('Old Devil') built on Mar 4 2013 09:10:42
Библиотека кодирования : libebml v1.3.0 + libmatroska v1.4.0
Видео
Идентификатор : 1
Формат : AVC
Формат/Информация : Advanced Video Codec
Профиль формата : High@L4.1
Параметр CABAC формата : Да
Параметр ReFrames формата : 8 кадров
Идентификатор кодека : V_MPEG4/ISO/AVC
Продолжительность : 1 ч. 16 м.
Битрейт : 1831 Кбит/сек
Ширина : 696 пикселей
Высота : 572 пикселя
Соотношение сторон : 4:3
Режим частоты кадров : Постоянный
Частота кадров : 25,000 кадров/сек
Цветовое пространство : YUV
Субдискретизация насыщенности : 4:2:0
Битовая глубина : 8 бит
Тип развёртки : Прогрессивная
Бит/(Пиксели*Кадры) : 0.184
Размер потока : 987 Мбайт (89%)
Библиотека кодирования : x264 core 130 r2273 b3065e6
Настройки программы : cabac=1 / ref=8 / deblock=1:-2:-1 / analyse=0x3:0x113 / me=umh / subme=10 / psy=1 / psy_rd=1.00:0.05 / mixed_ref=1 / me_range=32 / chroma_me=1 / trellis=2 / 8x8dct=1 / cqm=0 / deadzone=21,11 / fast_pskip=0 / chroma_qp_offset=-3 / threads=6 / lookahead_threads=1 / sliced_threads=0 / nr=0 / decimate=0 / interlaced=0 / bluray_compat=0 / constrained_intra=0 / bframes=8 / b_pyramid=2 / b_adapt=2 / b_bias=0 / direct=3 / weightb=1 / open_gop=0 / weightp=2 / keyint=250 / keyint_min=25 / scenecut=40 / intra_refresh=0 / rc=2pass / mbtree=0 / bitrate=1831 / ratetol=1.0 / qcomp=0.60 / qpmin=0 / qpmax=69 / qpstep=4 / cplxblur=20.0 / qblur=0.5 / ip_ratio=1.40 / pb_ratio=1.30 / aq=1:1.00
Default : Да
Forced : Нет
Аудио
Идентификатор : 2
Формат : AC-3
Формат/Информация : Audio Coding 3
Расширение режима : CM (complete main)
Параметр Endianness формата : Big
Идентификатор кодека : A_AC3
Продолжительность : 1 ч. 16 м.
Вид битрейта : Постоянный
Битрейт : 192 Кбит/сек
Каналы : 2 канала
Расположение каналов : Front: L R
Частота : 48,0 КГц
Метод сжатия : С потерями
Размер потока : 106 Мбайт (9%)
Default : Да
Forced : Нет





   Похожие торренты   Торрент   Размер 
В этой теме нет новых непрочитанных сообщений. Честь товарища (1953) DVDRip от New-Team

10 | 14

1.09 ГБ

В этой теме нет новых непрочитанных сообщений. Честь товарища (1953) DVDRip от New-Team

15 | 17

745.37 МБ

В этой теме нет новых непрочитанных сообщений. Три товарища (1935) DVDRip от New-Team

12 | 3

744.93 МБ

В этой теме нет новых непрочитанных сообщений. Три товарища (1935) DVDRip-AVC от New-Team

21 | 9

1.09 ГБ

В этой теме нет новых непрочитанных сообщений. Три товарища (1935) DVDRip от New-Team

50 | 12

1.09 ГБ

В этой теме нет новых непрочитанных сообщений. Три товарища [01-04 из 04] (2012) DVDRip от New-Team | лицензия

176 | 3

3.14 ГБ

В этой теме нет новых непрочитанных сообщений. Три товарища [01-04 из 04] (2012) DVDRip-AVC от New-Team | лицензия

0 | 3

3.13 ГБ




Вы не можете начинать темы
Вы не можете отвечать на сообщения
Вы не можете редактировать свои сообщения
Вы не можете удалять свои сообщения
Вы не можете добавлять вложения

Перейти:  
Для Мосгорсуда, Роскомнадзора и рекламодателей: mosgorsud-torrent[собачка]yandex.ru
 Вход
ppkBB3cker v.2 © 2008-2014 @ PPK
[ Time : 0.040s | 17 Queries | GZIP : Off ]

Торрент трекер RUTOR.IN, Не можете зайти на rutor.org? Какой новый адрес рутор? Какое зеркало рутор? Не работает rutor.org и зеркала? Тогда наш торрент специально для вас. Rutor.in неофициальное зеркало rutor. В случае если у Вас заблокирован rutor или вдруг Вы не можете на него зайти, то Вы без труда сможете скачать бесплатно и без рекламы последние новинки кино, игр, сериалов и прочего у нас, на Rutor.in. Не нужно использовать прокси, чтобы зайти на рутор, достаточно воспользоваться нашим ресурсом. Все новые фильмы, игры, сериалы, книги и музыка за 2013 и 2014 годы через торрент бесплатно. Скачивайте фильмы в хорошем качестве, игры для пк, xbox, playstation без регистрации. У нас вы найдете новые Зарубежные сериалы и Русские сериалы 2013, 2014, 2015 годов. Оставайтесь с нами, качайте любимые фильмы, игры, сериалы, книги и музыку.
cron