img image001 image001 image001 image001 image001 image001 image001 image001 image001 image001 image001 image001 image001 image001 image001

Planets Sun Sun Sun
Статистика раздачи
Автор: Nickolas3434 | Размер: 4.86 ГБ | Добавлен: 11 сен 2015
Раздают: 165    Качают: 13
Скачать торрент
Скачать торрент
Описание торрента

СообщениеДобавлено: 11 сен 2015 


Информация о фильме
Название: Велкам хом
Год выхода: 2013
Жанр: Драма, комедия
Режиссер: Ангелина Никонова
В ролях: Карен Карагулян, Ольга Дыховичная, Остин Кеннеди, Ара Воланд, Кори Бордман, Гвен Косак, Эдвард Бейкер-Дьюли
О фильме:
Это история о людях, потерявших чувство принадлежности к определённой географической точке, к тому месту, которое мы называем домом. Всех их объединяет жажда иллюзорного успеха, в гонке за которым многие проводят годы и десятилетия, жертвуя своими первоначальными ценностями. Герои фильма — не самые несчастные люди на свете, но у всех них непростая жизнь, которую каждый избрал добровольно, надеясь реализовать свои представления о благополучии. Нью-Йорк для них — поле боя, где они ежедневно борются за свою мечту.

Выпущено: Россия / Baraban Films
Продолжительность: 01:50:51
Перевод: Профессиональное многоголосное
Файл
Формат: MKV
Качество: HDTV 1080i
Видео: MPEG-4 AVC, 5766 Кбит/с, 1920x1080
Аудио: АС3, 2 ch, 384 Кбит/с
Сэмпл
Общее
Уникальный идентификатор : 210908413659004706134366832288358408519 (0x9EAB7BA1E262DC9B8058A3C05F572147)
Полное имя : E:BLUEBIRDWelkome.Home.2013.HDTV-BLUEBIRD.mkv
Формат : Matroska
Версия формата : Version 4 / Version 2
Размер файла : 4,86 Гбайт
Продолжительность : 1 ч. 50 м.
Общий поток : 6275 Кбит/сек
Дата кодирования : UTC 2015-09-09 16:55:01
Программа кодирования : mkvmerge v8.3.0 ('Over the Horizon') 64bit
Библиотека кодирования : libebml v1.3.1 + libmatroska v1.4.2
DURATION : 01:50:51.552000000
NUMBER_OF_FRAMES : 207860
NUMBER_OF_BYTES : 319272960
_STATISTICS_WRITING_APP : mkvmerge v8.3.0 ('Over the Horizon') 64bit
_STATISTICS_WRITING_DATE_UTC : 2015-09-09 16:55:01
_STATISTICS_TAGS : BPS DURATION NUMBER_OF_FRAMES NUMBER_OF_BYTES
Видео
Идентификатор : 1
Формат : AVC
Формат/Информация : Advanced Video Codec
Профиль формата : Main@L4.0
Параметр CABAC формата : Да
Параметр ReFrames формата : 4 кадра
Идентификатор кодека : V_MPEG4/ISO/AVC
Продолжительность : 1 ч. 50 м.
Битрейт : 5766 Кбит/сек
Ширина : 1920 пикселей
Высота : 1080 пикселей
Соотношение сторон : 16:9
Режим частоты кадров : Постоянный
Частота кадров : 25,000 кадров/сек
Стандарт вещания : Component
Цветовое пространство : YUV
Субдискретизация насыщенности : 4:2:0
Битовая глубина : 8 бит
Тип развёртки : Чересстрочная
Порядок развёртки : Верхнее поле первое
Бит/(Пиксели*Кадры) : 0.111
Размер потока : 4,46 Гбайт (92%)
Default : Да
Forced : Нет
Основные цвета : BT.709
Характеристики трансфера : BT.709
Коэффициенты матрицы : BT.709
Аудио
Идентификатор : 2
Формат : AC-3
Формат/Информация : Audio Coding 3
Расширение режима : CM (complete main)
Параметр Endianness формата : Big
Идентификатор кодека : A_AC3
Продолжительность : 1 ч. 50 м.
Вид битрейта : Постоянный
Битрейт : 384 Кбит/сек
Каналы : 2 канала
Расположение каналов : Front: L R
Частота : 48,0 КГц
Битовая глубина : 16 бит
Метод сжатия : С потерями
Задержка видео : 28 мс.
Размер потока : 304 Мбайт (6%)
Язык : Russian
Default : Да
Forced : Нет
Кинотавр, 2014 год
Номинации (1):
Главный приз
Карловы Вары, 2014 год
Номинации (1):
Хрустальный глобус

Релиз от:



   Похожие торренты   Торрент   Размер 
В этой теме нет новых непрочитанных сообщений. Велкам хом (2013) WEB-DLRip | iTunes

181 | 5

750.23 МБ

В этой теме нет новых непрочитанных сообщений. Велкам хом (2013) WEB-DL 720p | iTunes

386 | 26

3.56 ГБ

В этой теме нет новых непрочитанных сообщений. Велкам хом (2013) WEB-DLRip | iTunes

2018 | 136

1.46 ГБ

В этой теме нет новых непрочитанных сообщений. Велкам хом (2013) WEB-DLRip от Scarabey | iTunes

26 | 8

748.15 МБ

В этой теме нет новых непрочитанных сообщений. Велкам хом (2013) WEB-DLRip от Scarabey | iTunes

192 | 22

1.45 ГБ

В этой теме нет новых непрочитанных сообщений. Сектор Зеро / Section zéro [01-04 из 8] (2016) HDTV 1080i HDTV 1080i от MediaClub | P

10 | 3

9.5 ГБ

В этой теме нет новых непрочитанных сообщений. Велоспорт. Арктическая гонка Норвегии 2013 / Arctic Race of Norway 2013 (2013) HDTV 1080i

0 | 3

8.64 ГБ




Вы не можете начинать темы
Вы не можете отвечать на сообщения
Вы не можете редактировать свои сообщения
Вы не можете удалять свои сообщения
Вы не можете добавлять вложения

Перейти:  
Для Мосгорсуда, Роскомнадзора и рекламодателей: mosgorsud-torrent[собачка]yandex.ru
 Вход
ppkBB3cker v.2 © 2008-2014 @ PPK
[ Time : 0.048s | 14 Queries | GZIP : Off ]

Торрент трекер RUTOR.IN, Не можете зайти на rutor.org? Какой новый адрес рутор? Какое зеркало рутор? Не работает rutor.org и зеркала? Тогда наш торрент специально для вас. Rutor.in неофициальное зеркало rutor. В случае если у Вас заблокирован rutor или вдруг Вы не можете на него зайти, то Вы без труда сможете скачать бесплатно и без рекламы последние новинки кино, игр, сериалов и прочего у нас, на Rutor.in. Не нужно использовать прокси, чтобы зайти на рутор, достаточно воспользоваться нашим ресурсом. Все новые фильмы, игры, сериалы, книги и музыка за 2013 и 2014 годы через торрент бесплатно. Скачивайте фильмы в хорошем качестве, игры для пк, xbox, playstation без регистрации. У нас вы найдете новые Зарубежные сериалы и Русские сериалы 2013, 2014, 2015 годов. Оставайтесь с нами, качайте любимые фильмы, игры, сериалы, книги и музыку.