img image001 image001 image001 image001 image001 image001 image001 image001 image001 image001 image001 image001 image001 image001 image001

Planets Sun Sun Sun
Статистика раздачи
Автор: Nickolas3434 | Размер: 1.78 ГБ | Добавлен: 11 сен 2015
Раздают: 102    Качают: 12
Скачать торрент
Скачать торрент
Описание торрента

СообщениеДобавлено: 11 сен 2015 


Информация о фильме
Название: Завещание профессора Доуэля
Год выхода: 1984
Жанр: Фантастика, драма
Режиссер: Леонид Менакер
В ролях: Олгерт Кродерс, Игорь Васильев, Валентина Титова, Алексей Бобров, Николай Лавров, Александр Пороховщиков, Эрнст Романов, Боб Цымба, Петр Шелохонов, Наталья Сайко
О фильме: Фильм снят по мотивам известного научно-фантастического романа русского писателя Александра Беляева «Голова профессора Доуэля». Много лет крупный ученый пытался решить проблему бессмертия. Он не скрывает от коллег результатов смелых и рискованных экспериментов. Но однажды случилось непредвиденное: профессор исчез. В преступных целях результатами научных изысканий профессора Доуэля пытается воспользоваться его лучший ученик. Казалось бы, все у него должно получиться…
Страна: СССР
Продолжительность: 01:26:18
Перевод: не требуется
Файл
Кодек: MKV
Качество: DVDRip-AVC
Видео: MPEG-4 AVC, 2500 Кбит/с, 720x576@768x576
Звук: AC3, 6 ch, 448 Кбит/с
Субтитры: Русские

Общее
Уникальный идентификатор : 251714249847481440396618992071569703342 (0xBD5E66AFDE0D8D049363FF6B5B6201AE)
Полное имя : R:МОИ РИПЫЗавещание профессора Доуэля_1984-DVDRip-AVC.mkv
Формат : Matroska
Версия формата : Version 2
Размер файла : 1,78 Гбайт
Продолжительность : 1 ч. 26 м.
Общий поток : 2953 Кбит/сек
Дата кодирования : UTC 2015-04-17 14:45:15
Программа кодирования : mkvmerge v5.8.0 ('No Sleep / Pillow') built on Sep 2 2012 15:37:04
Библиотека кодирования : libebml v1.2.3 + libmatroska v1.3.0
Видео
Идентификатор : 1
Формат : AVC
Формат/Информация : Advanced Video Codec
Профиль формата : High@L4.1
Параметр CABAC формата : Да
Параметр ReFrames формата : 13 кадров
Идентификатор кодека : V_MPEG4/ISO/AVC
Продолжительность : 1 ч. 26 м.
Битрейт : 2500 Кбит/сек
Ширина : 720 пикселей
Высота : 576 пикселей
Соотношение сторон : 4:3
Режим частоты кадров : Постоянный
Частота кадров : 25,000 кадров/сек
Стандарт вещания : PAL
Цветовое пространство : YUV
Субдискретизация насыщенности : 4:2:0
Битовая глубина : 8 бит
Тип развёртки : Прогрессивная
Бит/(Пиксели*Кадры) : 0.241
Размер потока : 1,47 Гбайт (83%)
Библиотека кодирования : x264 core 142 r2431 ac76440
Настройки программы : cabac=1 / ref=13 / deblock=1:-2:-2 / analyse=0x3:0x133 / me=umh / subme=10 / psy=1 / psy_rd=1.05:0.15 / mixed_ref=1 / me_range=32 / chroma_me=1 / trellis=2 / 8x8dct=1 / cqm=0 / deadzone=21,11 / fast_pskip=0 / chroma_qp_offset=-3 / threads=12 / lookahead_threads=2 / sliced_threads=0 / nr=0 / decimate=0 / interlaced=0 / bluray_compat=0 / constrained_intra=0 / bframes=8 / b_pyramid=2 / b_adapt=2 / b_bias=0 / direct=3 / weightb=1 / open_gop=0 / weightp=2 / keyint=250 / keyint_min=25 / scenecut=40 / intra_refresh=0 / rc=2pass / mbtree=0 / bitrate=2500 / ratetol=1.0 / qcomp=0.60 / qpmin=0 / qpmax=39 / qpstep=4 / cplxblur=20.0 / qblur=0.5 / ip_ratio=1.40 / pb_ratio=1.30 / aq=1:1.00
Язык : English
Default : Да
Forced : Нет
Основные цвета : BT.601 PAL
Характеристики трансфера : BT.470 System B, BT.470 System G
Коэффициенты матрицы : BT.601
Аудио
Идентификатор : 2
Формат : AC-3
Формат/Информация : Audio Coding 3
Расширение режима : CM (complete main)
Параметр Endianness формата : Big
Идентификатор кодека : A_AC3
Продолжительность : 1 ч. 26 м.
Вид битрейта : Постоянный
Битрейт : 448 Кбит/сек
Каналы : 6 каналов
Расположение каналов : Front: L C R, Side: L R, LFE
Частота : 48,0 КГц
Битовая глубина : 16 бит
Метод сжатия : С потерями
Размер потока : 277 Мбайт (15%)
Язык : Russian
Default : Да
Forced : Нет
Текст
Идентификатор : 3
Формат : UTF-8
Идентификатор кодека : S_TEXT/UTF8
Идентификатор кодека/Информация : UTF-8 Plain Text
Default : Да
Forced : Нет

Релиз от:
Автор релиза:



   Похожие торренты   Торрент   Размер 
В этой теме нет новых непрочитанных сообщений. Завещание профессора Доуэля (1984) DVDRip от ExKinoRay

457 | 6

1.37 ГБ

В этой теме нет новых непрочитанных сообщений. Завещание профессора Доуэля (1984) DVDRip

9 | 8

746.14 МБ

В этой теме нет новых непрочитанных сообщений. Завещание профессора Доуэля (1984) DVD9 | Полная реставрация

1 | 7

4.6 ГБ

В этой теме нет новых непрочитанных сообщений. Петр Первый. Завещание [01-04 из 04] (2011) WEB-DLRip-AVC от ExKinoRay

278 | 25

2.54 ГБ

В этой теме нет новых непрочитанных сообщений. Последнее завещание Нобеля / Nobels testamente (2012) BDRip-AVC от ExKinoRay

4 | 2

1.95 ГБ

В этой теме нет новых непрочитанных сообщений. Ель (1984) DVDRip от ExKinoRay

17 | 2

165.27 МБ

В этой теме нет новых непрочитанных сообщений. Капля (1984) DVDRip от ExKinoRay

8 | 2

118.98 МБ




Вы не можете начинать темы
Вы не можете отвечать на сообщения
Вы не можете редактировать свои сообщения
Вы не можете удалять свои сообщения
Вы не можете добавлять вложения

Перейти:  
Для Мосгорсуда, Роскомнадзора и рекламодателей: mosgorsud-torrent[собачка]yandex.ru
 Вход
ppkBB3cker v.2 © 2008-2014 @ PPK
[ Time : 0.030s | 15 Queries | GZIP : Off ]

Торрент трекер RUTOR.IN, Не можете зайти на rutor.org? Какой новый адрес рутор? Какое зеркало рутор? Не работает rutor.org и зеркала? Тогда наш торрент специально для вас. Rutor.in неофициальное зеркало rutor. В случае если у Вас заблокирован rutor или вдруг Вы не можете на него зайти, то Вы без труда сможете скачать бесплатно и без рекламы последние новинки кино, игр, сериалов и прочего у нас, на Rutor.in. Не нужно использовать прокси, чтобы зайти на рутор, достаточно воспользоваться нашим ресурсом. Все новые фильмы, игры, сериалы, книги и музыка за 2013 и 2014 годы через торрент бесплатно. Скачивайте фильмы в хорошем качестве, игры для пк, xbox, playstation без регистрации. У нас вы найдете новые Зарубежные сериалы и Русские сериалы 2013, 2014, 2015 годов. Оставайтесь с нами, качайте любимые фильмы, игры, сериалы, книги и музыку.
cron