img image001 image001 image001 image001 image001 image001 image001 image001 image001 image001 image001 image001 image001 image001 image001

Planets Sun Sun Sun
Статистика раздачи
Автор: Nickolas3434 | Размер: 1.46 ГБ | Добавлен: 11 сен 2015
Раздают: 42    Качают: 4
Скачать торрент
Скачать торрент
Описание торрента

СообщениеДобавлено: 11 сен 2015 

Страна: СССР
Производство: Мосфильм
Жанр: драма, военный
Год выпуска: 1950
Продолжительность: 01:38:17
Перевод: Не требуется
Cубтитры: нет
Оригинальная аудиодорожка: русский
Режиссер: Михаил Ромм
В ролях:
Сергей Вечеслов, Николай Комиссаров, Елена Кузьмина, Василий Макаров, Алексей Грибов, Александр Чебан, Владимир Савельев, Петр Березов, Владимир Белокуров, Марк Перцовский, Александр Пелевин, Михаил Высоцкий, Павел Гайдебуров, Владимир Гардин, Николай Рыбников, Николай Тимофеев, Александр Хохлов, Лев Фенин...
Полный список актёров
Описание:
1945 год. В Берлин с секретной миссией прилетают американский сенатор и представитель ЦРУ. Они собираются договориться с главарями третьего рейха об односторонней капитуляции немецких войск на Западном фронте.
Советское командование поручает работающим в фашистском логове разведчикам Дементьеву и Глуховой выяснить цель миссии. Задание выполнено, но Мария Глухова раскрыта и погибает.
После падения Берлина Дементьев находит в условленном месте копии списков немецких агентов на Балканах, которые удалось сфотографировать советской разведчице...





Источник: DVB
Качество видео: SATRip
Формат видео: AVI
Видео: 688x512 (4:3), 25 fps, XviD ~ 1923 kbps avg, 0.218 bit/pixel
Аудио: 48 kHz, Dolby Digital AC3 2.0, 192 kbps
Раздача от:
Общее
Полное имя : Sekretnaya.missiya.1950.SATRip_[New-team]_by_AVP_Studio.avi
Формат : AVI
Формат/Информация : Audio Video Interleave
Размер файла : 1,46 Гбайт
Продолжительность : 1 ч. 38 м.
Общий поток : 2125 Кбит/сек
Программа кодирования : VirtualDubMod 1.5.10.3 | www.virtualdub-fr.org || (build 2550/release)
Библиотека кодирования : VirtualDubMod build 2550/release
Видео
Идентификатор : 0
Формат : MPEG-4 Visual
Профиль формата : Advanced Simple@L5
Параметр BVOP формата : 1
Параметр QPel формата : Нет
Параметр GMC формата : Без точки перехода
Параметр матрицы формата : Выборочная
Идентификатор кодека : XVID
Идентификатор кодека/Подсказка : XviD
Продолжительность : 1 ч. 38 м.
Битрейт : 1923 Кбит/сек
Ширина : 688 пикселей
Высота : 512 пикселей
Соотношение сторон : 4:3
Частота кадров : 25,000 кадров/сек
Цветовое пространство : YUV
Субдискретизация насыщенности : 4:2:0
Битовая глубина : 8 бит
Тип развёртки : Прогрессивная
Метод сжатия : С потерями
Бит/(Пиксели*Кадры) : 0.218
Размер потока : 1,32 Гбайт (91%)
Библиотека кодирования : XviD 73
Аудио
Идентификатор : 1
Формат : AC-3
Формат/Информация : Audio Coding 3
Расширение режима : CM (complete main)
Параметр Endianness формата : Big
Идентификатор кодека : 2000
Продолжительность : 1 ч. 38 м.
Вид битрейта : Постоянный
Битрейт : 192 Кбит/сек
Каналы : 2 канала
Расположение каналов : Front: L R
Частота : 48,0 КГц
Метод сжатия : С потерями
Размер потока : 135 Мбайт (9%)
Выравнивание : Разделение по промежуткам
Продолжительность промежутка : 40 мс. (1,00 видеокадр)
Время предзагрузки промежутка : 500 мс





   Похожие торренты   Торрент   Размер 
В этой теме нет новых непрочитанных сообщений. Секретная миссия (1950) SATRip от New-Team

30 | 2

745.49 МБ

В этой теме нет новых непрочитанных сообщений. Секретная миссия (1950) SATRip-AVC от New-Team

52 | 3

1.46 ГБ

В этой теме нет новых непрочитанных сообщений. Секретная миссия Санты / Магический кристалл / Maaginen kristall / Santa Claus und der Zauberkristall (2011) DVD5 от New-Team | P | Лицен

21 | 31

4.12 ГБ

В этой теме нет новых непрочитанных сообщений. Бушков Александр - А.С. Секретная миссия (2013) MP3

257 | 11

1.06 ГБ

В этой теме нет новых непрочитанных сообщений. Секретная миссия: Причудливый остров (2010) PC

4 | 2

131.41 МБ

В этой теме нет новых непрочитанных сообщений. Жуковский (1950) SATRip-AVC от New-Team

35 | 3

1.09 ГБ

В этой теме нет новых непрочитанных сообщений. Жуковский (1950) SATRip от New-Team

20 | 5

1.09 ГБ




Вы не можете начинать темы
Вы не можете отвечать на сообщения
Вы не можете редактировать свои сообщения
Вы не можете удалять свои сообщения
Вы не можете добавлять вложения

Перейти:  
Для Мосгорсуда, Роскомнадзора и рекламодателей: mosgorsud-torrent[собачка]yandex.ru
 Вход
ppkBB3cker v.2 © 2008-2014 @ PPK
[ Time : 0.027s | 15 Queries | GZIP : Off ]

Торрент трекер RUTOR.IN, Не можете зайти на rutor.org? Какой новый адрес рутор? Какое зеркало рутор? Не работает rutor.org и зеркала? Тогда наш торрент специально для вас. Rutor.in неофициальное зеркало rutor. В случае если у Вас заблокирован rutor или вдруг Вы не можете на него зайти, то Вы без труда сможете скачать бесплатно и без рекламы последние новинки кино, игр, сериалов и прочего у нас, на Rutor.in. Не нужно использовать прокси, чтобы зайти на рутор, достаточно воспользоваться нашим ресурсом. Все новые фильмы, игры, сериалы, книги и музыка за 2013 и 2014 годы через торрент бесплатно. Скачивайте фильмы в хорошем качестве, игры для пк, xbox, playstation без регистрации. У нас вы найдете новые Зарубежные сериалы и Русские сериалы 2013, 2014, 2015 годов. Оставайтесь с нами, качайте любимые фильмы, игры, сериалы, книги и музыку.