img image001 image001 image001 image001 image001 image001 image001 image001 image001 image001 image001 image001 image001 image001 image001

Planets Sun Sun Sun
Статистика раздачи
Автор: Nickolas3434 | Размер: 1.64 ГБ | Добавлен: 13 сен 2015
Раздают: 172    Качают: 6
Скачать торрент
Скачать торрент
Описание торрента

СообщениеДобавлено: 13 сен 2015 


Информация о фильме
Название: Звезда
Год выхода: 1949
Жанр: Драма, военный
Режиссер: Александр Иванов
В ролях: Николай Крючков, Василий Меркурьев, Анатолий Вербицкий, Алексей Покровский, Ирина Радченко, Лидия Сухаревская, Олег Жаков, Александр Хлопотов, Мовсум Санани, Павел Волков, Владимир Марьев
О фильме: Советский художественный фильм, снятый в 1949 году по одноимённой повести Эммануила Казакевича «Звезда», о маленькой группе разведчиков. Весной 1944 года на оккупированной территории немецкое командование готовит секретное наступление. Разведчики, направленные во вражеский тыл для уточнения данных, назад не вернулись. Новую группу из семерки разведчиков, названную «Звезда», возглавляет лейтенант Травкин. Каждый разведчик понимает, что это задание, вероятно, станет для него последним.
Страна: СССР, Ленфильм
Продолжительность: 01:30:40
Перевод: не требуется
Файл
Кодек: MKV
Качество: DVDRip-AVC
Видео: MPEG-4 AVC, 2400 Кбит/с, 696x572@742x572
Звук: AC3, 2 ch, 192 Кбит/с

Общее
Уникальный идентификатор : 253471269525988671220486394276720933721 (0xBEB0CA72033CE2C3A68A1467480BFB59)
Полное имя : R:МОИ РИПЫЗвезда_1949-DVDRip-AVC.mkv
Формат : Matroska
Версия формата : Version 2
Размер файла : 1,64 Гбайт
Продолжительность : 1 ч. 30 м.
Общий поток : 2594 Кбит/сек
Дата кодирования : UTC 2015-05-09 05:05:58
Программа кодирования : mkvmerge v5.8.0 ('No Sleep / Pillow') built on Sep 2 2012 15:37:04
Библиотека кодирования : libebml v1.2.3 + libmatroska v1.3.0
Видео
Идентификатор : 1
Формат : AVC
Формат/Информация : Advanced Video Codec
Профиль формата : High@L4.1
Параметр CABAC формата : Да
Параметр ReFrames формата : 14 кадров
Идентификатор кодека : V_MPEG4/ISO/AVC
Продолжительность : 1 ч. 30 м.
Битрейт : 2400 Кбит/сек
Ширина : 696 пикселей
Высота : 572 пикселя
Соотношение сторон : 1,217
Режим частоты кадров : Постоянный
Частота кадров : 25,000 кадров/сек
Цветовое пространство : YUV
Субдискретизация насыщенности : 4:2:0
Битовая глубина : 8 бит
Тип развёртки : Прогрессивная
Бит/(Пиксели*Кадры) : 0.241
Размер потока : 1,49 Гбайт (91%)
Библиотека кодирования : x264 core 142 r2431 ac76440
Настройки программы : cabac=1 / ref=14 / deblock=1:-3:-3 / analyse=0x3:0x133 / me=umh / subme=10 / psy=1 / psy_rd=1.05:0.15 / mixed_ref=1 / me_range=32 / chroma_me=1 / trellis=2 / 8x8dct=1 / cqm=0 / deadzone=21,11 / fast_pskip=0 / chroma_qp_offset=-3 / threads=12 / lookahead_threads=2 / sliced_threads=0 / nr=0 / decimate=0 / interlaced=0 / bluray_compat=0 / constrained_intra=0 / bframes=7 / b_pyramid=2 / b_adapt=2 / b_bias=0 / direct=3 / weightb=1 / open_gop=0 / weightp=2 / keyint=250 / keyint_min=25 / scenecut=40 / intra_refresh=0 / rc=2pass / mbtree=0 / bitrate=2400 / ratetol=1.0 / qcomp=0.65 / qpmin=0 / qpmax=39 / qpstep=4 / cplxblur=20.0 / qblur=0.5 / ip_ratio=1.40 / pb_ratio=1.30 / aq=1:1.00
Язык : English
Default : Да
Forced : Нет
Основные цвета : BT.601 PAL
Характеристики трансфера : BT.470 System B, BT.470 System G
Коэффициенты матрицы : BT.601
Аудио
Идентификатор : 2
Формат : AC-3
Формат/Информация : Audio Coding 3
Расширение режима : CM (complete main)
Параметр Endianness формата : Big
Идентификатор кодека : A_AC3
Продолжительность : 1 ч. 30 м.
Вид битрейта : Постоянный
Битрейт : 192 Кбит/сек
Каналы : 2 канала
Расположение каналов : Front: L R
Частота : 48,0 КГц
Битовая глубина : 16 бит
Метод сжатия : С потерями
Размер потока : 125 Мбайт (7%)
Язык : Russian
Default : Да
Forced : Нет

Релиз от:
Автор релиза:



   Похожие торренты   Торрент   Размер 
В этой теме нет новых непрочитанных сообщений. Звезда (1949) DVDRip

25 | 2

1.37 ГБ

В этой теме нет новых непрочитанных сообщений. Звезда (1949) DVDRip

20 | 6

1.82 ГБ

В этой теме нет новых непрочитанных сообщений. Звезда (1949) DVDRip от Alekxandr48

41 | 4

700.97 МБ

В этой теме нет новых непрочитанных сообщений. Вся королевская рать / All the King's Men (1949) DVDRip от ExKinoRay

38 | 7

2.06 ГБ

В этой теме нет новых непрочитанных сообщений. Полуночный поцелуй / That Midnight Kiss (1949) DVDRip от ExKinoRay

76 | 10

1.38 ГБ

В этой теме нет новых непрочитанных сообщений. Парочка Баркли с Бродвея / The Barkleys of Broadway (1949) DVDRip от ExKinoRay | P

9 | 4

1.37 ГБ

В этой теме нет новых непрочитанных сообщений. Безымянная звезда (1978) DVDRip-AVC от ExKinoRay

84 | 39

2.78 ГБ




Вы не можете начинать темы
Вы не можете отвечать на сообщения
Вы не можете редактировать свои сообщения
Вы не можете удалять свои сообщения
Вы не можете добавлять вложения

Перейти:  
Для Мосгорсуда, Роскомнадзора и рекламодателей: mosgorsud-torrent[собачка]yandex.ru
 Вход
ppkBB3cker v.2 © 2008-2014 @ PPK
[ Time : 0.023s | 14 Queries | GZIP : Off ]
CGP output time : 0.087s | 5 Queries | GZIP : Off

Торрент трекер RUTOR.IN, Не можете зайти на rutor.org? Какой новый адрес рутор? Какое зеркало рутор? Не работает rutor.org и зеркала? Тогда наш торрент специально для вас. Rutor.in неофициальное зеркало rutor. В случае если у Вас заблокирован rutor или вдруг Вы не можете на него зайти, то Вы без труда сможете скачать бесплатно и без рекламы последние новинки кино, игр, сериалов и прочего у нас, на Rutor.in. Не нужно использовать прокси, чтобы зайти на рутор, достаточно воспользоваться нашим ресурсом. Все новые фильмы, игры, сериалы, книги и музыка за 2013 и 2014 годы через торрент бесплатно. Скачивайте фильмы в хорошем качестве, игры для пк, xbox, playstation без регистрации. У нас вы найдете новые Зарубежные сериалы и Русские сериалы 2013, 2014, 2015 годов. Оставайтесь с нами, качайте любимые фильмы, игры, сериалы, книги и музыку.