img image001 image001 image001 image001 image001 image001 image001 image001 image001 image001 image001 image001 image001 image001 image001

Planets Sun Sun Sun
Статистика раздачи
Автор: Nickolas3434 | Размер: 1.96 ГБ | Добавлен: 12 сен 2015
Раздают: 28    Качают: 14
Скачать торрент
Скачать торрент
Описание торрента

СообщениеДобавлено: 12 сен 2015 


Информация о фильме
Название: Трудное счастье
Год выхода: 1958
Жанр: Драма
Режиссер: Александр Столпер
В ролях: Михаил Козаков, Валерий Ашуров, Виктор Авдюшко, Евгений Леонов, Нина Головина, Верико Анджапаридзе, Антонина Гунченко, Николай Луценко, Олег Ефремов, Никита Кондратьев, Николай Сморчков, Раднэр Муратов, Виктория Радунская, Виталий Полицеймако, Николай Сергеев, Николай Бубнов, Виктор Яковлев, Сергей Шишков, Афанасий Кочетков, Павел Шальнов, Геннадий Сергеев, Николай Сличенко
О фильме: В годы гражданской войны, странствуя с родными по степям южной России, цыганенок Коля Нагорный отбился от табора и попал в русскую деревню. Судьба его оказалась тесно связанной со сложными этапами жизни страны: диверсии кулаков, убийства, поджоги. Коля становится комсомольцем, его любимая погибает от рук бандитов. Коле пришлось пройти сложный путь борьбы за свое счастье, понять свое место в жизни.
Страна: СССР, Мосфильм
Продолжительность: 01:37:25
Перевод: не требуется
Файл
Кодек: MKV
Качество: DVDRip-AVC
Видео: MPEG-4 AVC, 2650 Кбит/с, 668x552@712x552
Звук: AC3, 2 ch, 224 Кбит/с
Сравнение с исходником: http://screenshotcomparison.com/compari ... /picture:0

Общее
Уникальный идентификатор : 180446242494083556569628408446956004459 (0x87C0AEA3296C3568A8294DE5226EE46B)
Полное имя : R:МОИ РИПЫТрудное счастье_1958-DVDRip-AVC.mkv
Формат : Matroska
Версия формата : Version 2
Размер файла : 1,96 Гбайт
Продолжительность : 1 ч. 37 м.
Общий поток : 2876 Кбит/сек
Дата кодирования : UTC 2015-07-08 13:37:21
Программа кодирования : mkvmerge v5.8.0 ('No Sleep / Pillow') built on Sep 2 2012 15:37:04
Библиотека кодирования : libebml v1.2.3 + libmatroska v1.3.0
Видео
Идентификатор : 1
Формат : AVC
Формат/Информация : Advanced Video Codec
Профиль формата : High@L4.1
Параметр CABAC формата : Да
Параметр ReFrames формата : 15 кадров
Идентификатор кодека : V_MPEG4/ISO/AVC
Продолжительность : 1 ч. 37 м.
Битрейт : 2650 Кбит/сек
Ширина : 668 пикселей
Высота : 552 пикселя
Соотношение сторон : 1,290
Соотношение сторон в оригинале : 1,291
Режим частоты кадров : Постоянный
Частота кадров : 25,000 кадров/сек
Цветовое пространство : YUV
Субдискретизация насыщенности : 4:2:0
Битовая глубина : 8 бит
Тип развёртки : Прогрессивная
Бит/(Пиксели*Кадры) : 0.287
Размер потока : 1,77 Гбайт (90%)
Библиотека кодирования : x264 core 146 r2538 121396c
Настройки программы : cabac=1 / ref=15 / deblock=1:-2:-2 / analyse=0x3:0x133 / me=umh / subme=10 / psy=1 / psy_rd=1.05:0.10 / mixed_ref=1 / me_range=32 / chroma_me=1 / trellis=2 / 8x8dct=1 / cqm=0 / deadzone=21,11 / fast_pskip=0 / chroma_qp_offset=-3 / threads=12 / lookahead_threads=2 / sliced_threads=0 / nr=0 / decimate=0 / interlaced=0 / bluray_compat=0 / constrained_intra=0 / bframes=8 / b_pyramid=2 / b_adapt=2 / b_bias=0 / direct=3 / weightb=1 / open_gop=0 / weightp=2 / keyint=250 / keyint_min=25 / scenecut=40 / intra_refresh=0 / rc=2pass / mbtree=0 / bitrate=2650 / ratetol=1.0 / qcomp=0.65 / qpmin=0 / qpmax=69 / qpstep=4 / cplxblur=20.0 / qblur=0.5 / ip_ratio=1.40 / pb_ratio=1.30 / aq=1:1.00
Язык : English
Default : Да
Forced : Нет
Основные цвета : BT.601 PAL
Характеристики трансфера : BT.470 System B, BT.470 System G
Коэффициенты матрицы : BT.601
Аудио
Идентификатор : 2
Формат : AC-3
Формат/Информация : Audio Coding 3
Расширение режима : CM (complete main)
Параметр Endianness формата : Big
Идентификатор кодека : A_AC3
Продолжительность : 1 ч. 37 м.
Вид битрейта : Постоянный
Битрейт : 224 Кбит/сек
Каналы : 2 канала
Расположение каналов : Front: L R
Частота : 48,0 КГц
Битовая глубина : 16 бит
Метод сжатия : С потерями
Размер потока : 156 Мбайт (8%)
Язык : Russian
Default : Да
Forced : Нет

Релиз от:
Автор релиза:



   Похожие торренты   Торрент   Размер 
В этой теме нет новых непрочитанных сообщений. Трудное счастье (1958) DVDRip от New-Team

5 | 0

1.09 ГБ

В этой теме нет новых непрочитанных сообщений. Трудное счастье (1958) DVDRip от New-Team

3 | 3

745.25 МБ

В этой теме нет новых непрочитанных сообщений. Трудное счастье (1958) DVDRip-AVC от New-Team

21 | 1

1.09 ГБ

В этой теме нет новых непрочитанных сообщений. Цыганское счастье (1981) DVDRip-AVC от ExKinoRay

10 | 0

1.6 ГБ

В этой теме нет новых непрочитанных сообщений. Отверженные / Les misérables (1958) DVDRip от ExKinoRay

148 | 36

2.06 ГБ

В этой теме нет новых непрочитанных сообщений. У тихой пристани (1958) DVDRip-AVC от ExKinoRay

11 | 1

1.73 ГБ

В этой теме нет новых непрочитанных сообщений. Любовники / Les amants / The Lovers (1958) DVDRip от ExKinoRay

1 | 2

1.37 ГБ




Вы не можете начинать темы
Вы не можете отвечать на сообщения
Вы не можете редактировать свои сообщения
Вы не можете удалять свои сообщения
Вы не можете добавлять вложения

Перейти:  
Для Мосгорсуда, Роскомнадзора и рекламодателей: mosgorsud-torrent[собачка]yandex.ru
 Вход
ppkBB3cker v.2 © 2008-2014 @ PPK
[ Time : 0.050s | 15 Queries | GZIP : Off ]

cron