img image001 image001 image001 image001 image001 image001 image001 image001 image001 image001 image001 image001 image001 image001 image001

Planets Sun Sun Sun
Статистика раздачи
Автор: Nickolas3434 | Размер: 1.62 ГБ | Добавлен: 13 сен 2015
Раздают: 54    Качают: 5
Скачать торрент
Скачать торрент
Описание торрента

СообщениеДобавлено: 13 сен 2015 


Информация о фильме
Название: Бессонная ночь
Год выхода: 1960
Жанр: Драма, экранизация
Режиссер: Исидор Анненский
В ролях: Юрий Соломин, Евгений Самойлов, Людмила Чернышёва, Джемма Осмоловская, Маргарита Володина, Александр Граве, Луиза Кошукова, Геннадий Карнович-Валуа, Алексей Грибов, Андрей Тутышкин, Иван Любезнов, Юрий Медведев, Инна Выходцева, Л. Нечаева, Леонид Чубаров, Вадим Захарченко, Олег Туманов
О фильме: По мотивам повести Н.Дементьева "Мои дороги". Молодой инженер Павел Кауров едет к месту своего первого назначения - в портовый город Сибирск. Его назначают руководить группой кранов: портальных и плавучих. После нескольких неполадок Павел осваивается с портовой работой и получает серьезное поручение. А тем временем в Сибирск приезжает его невеста Нина, архитектор по профессии. Однако, кроме Павла, на вокзал пришли ее встречать сокурсники - брат и сестра Петунины, в доме которых она останавливается. Вскоре приезжает и Аннушка, которая давно любит Павла. С этого дня у Павла происходят одни неприятности за другими. После аварии крана, происшедшей по его вине, герой берет себя в руки и делает все, чтобы вернуть доверие бригады...
Первая роль в кино, Юрия Соломина!
Страна: СССР, Киностудия им. М. Горького
Продолжительность: 01:26:00
Перевод: не требуется
Файл
Кодек: MKV
Качество: SATRip-AVC
Видео: MPEG-4, 2500 Кбит/с, 686x566@748х566
Звук: AC3, 2 ch, 192 Кбит/с

Общее
Уникальный идентификатор : 250328054280318503532417349770443865481 (0xBC536DF807516BCE8F39D22D3495BD89)
Полное имя : R:МОИ РИПЫБессонная ночь_1960-SATRip-AVC.mkv
Формат : Matroska
Версия формата : Version 2
Размер файла : 1,62 Гбайт
Продолжительность : 1 ч. 26 м.
Общий поток : 2694 Кбит/сек
Дата кодирования : UTC 2015-07-18 16:52:05
Программа кодирования : mkvmerge v5.8.0 ('No Sleep / Pillow') built on Sep 2 2012 15:37:04
Библиотека кодирования : libebml v1.2.3 + libmatroska v1.3.0
Видео
Идентификатор : 1
Формат : AVC
Формат/Информация : Advanced Video Codec
Профиль формата : High@L4.1
Параметр CABAC формата : Да
Параметр ReFrames формата : 15 кадров
Идентификатор кодека : V_MPEG4/ISO/AVC
Продолжительность : 1 ч. 26 м.
Битрейт : 2500 Кбит/сек
Ширина : 686 пикселей
Высота : 566 пикселей
Соотношение сторон : 4:3
Режим частоты кадров : Постоянный
Частота кадров : 25,000 кадров/сек
Цветовое пространство : YUV
Субдискретизация насыщенности : 4:2:0
Битовая глубина : 8 бит
Тип развёртки : Прогрессивная
Бит/(Пиксели*Кадры) : 0.258
Размер потока : 1,47 Гбайт (91%)
Библиотека кодирования : x264 core 146 r2538 121396c
Настройки программы : cabac=1 / ref=15 / deblock=1:-2:-2 / analyse=0x3:0x133 / me=umh / subme=10 / psy=1 / psy_rd=1.05:0.12 / mixed_ref=1 / me_range=32 / chroma_me=1 / trellis=2 / 8x8dct=1 / cqm=0 / deadzone=21,11 / fast_pskip=0 / chroma_qp_offset=-3 / threads=12 / lookahead_threads=2 / sliced_threads=0 / nr=0 / decimate=0 / interlaced=0 / bluray_compat=0 / constrained_intra=0 / bframes=8 / b_pyramid=2 / b_adapt=2 / b_bias=0 / direct=3 / weightb=1 / open_gop=0 / weightp=2 / keyint=250 / keyint_min=25 / scenecut=40 / intra_refresh=0 / rc_lookahead=60 / rc=2pass / mbtree=1 / bitrate=2500 / ratetol=1.0 / qcomp=0.65 / qpmin=0 / qpmax=69 / qpstep=4 / cplxblur=20.0 / qblur=0.5 / ip_ratio=1.40 / aq=1:1.00
Язык : English
Default : Да
Forced : Нет
Основные цвета : BT.601 PAL
Характеристики трансфера : BT.470 System B, BT.470 System G
Коэффициенты матрицы : BT.601
Аудио
Идентификатор : 2
Формат : AC-3
Формат/Информация : Audio Coding 3
Расширение режима : CM (complete main)
Параметр Endianness формата : Big
Идентификатор кодека : A_AC3
Продолжительность : 1 ч. 26 м.
Вид битрейта : Постоянный
Битрейт : 192 Кбит/сек
Каналы : 2 канала
Расположение каналов : Front: L R
Частота : 48,0 КГц
Битовая глубина : 16 бит
Метод сжатия : С потерями
Размер потока : 118 Мбайт (7%)
Язык : Russian
Default : Да
Forced : Нет

Релиз от:
Автор релиза:



   Похожие торренты   Торрент   Размер 
В этой теме нет новых непрочитанных сообщений. Бессонная ночь / Nuit blanche (2011) HDRip

214 | 7

1.45 ГБ

В этой теме нет новых непрочитанных сообщений. Бессонная ночь / Nuit blanche (2011) HDRip | L1

0 | 1

2.05 ГБ

В этой теме нет новых непрочитанных сообщений. Бессонная ночь / Nuit blanche (2011) HDRip

79 | 1

702.88 МБ

В этой теме нет новых непрочитанных сообщений. Бессонная ночь / Nuit blanche (2011) BDRip-AVC | P2, L1

0 | 3

2.5 ГБ

В этой теме нет новых непрочитанных сообщений. Бессонная ночь / Nuit blanche (2011) HDRip | L1

8 | 2

1.37 ГБ

В этой теме нет новых непрочитанных сообщений. Бессонная ночь / Nuit blanche (2011) BDRip 720p | L1

0 | 2

4.14 ГБ

В этой теме нет новых непрочитанных сообщений. Бессонная ночь / Nuit blanche (2011) DVDRip | КПК от Generalfilm

0 | 2

332.33 МБ




Вы не можете начинать темы
Вы не можете отвечать на сообщения
Вы не можете редактировать свои сообщения
Вы не можете удалять свои сообщения
Вы не можете добавлять вложения

Перейти:  
Для Мосгорсуда, Роскомнадзора и рекламодателей: mosgorsud-torrent[собачка]yandex.ru
 Вход
ppkBB3cker v.2 © 2008-2014 @ PPK
[ Time : 0.039s | 14 Queries | GZIP : Off ]

Торрент трекер RUTOR.IN, Не можете зайти на rutor.org? Какой новый адрес рутор? Какое зеркало рутор? Не работает rutor.org и зеркала? Тогда наш торрент специально для вас. Rutor.in неофициальное зеркало rutor. В случае если у Вас заблокирован rutor или вдруг Вы не можете на него зайти, то Вы без труда сможете скачать бесплатно и без рекламы последние новинки кино, игр, сериалов и прочего у нас, на Rutor.in. Не нужно использовать прокси, чтобы зайти на рутор, достаточно воспользоваться нашим ресурсом. Все новые фильмы, игры, сериалы, книги и музыка за 2013 и 2014 годы через торрент бесплатно. Скачивайте фильмы в хорошем качестве, игры для пк, xbox, playstation без регистрации. У нас вы найдете новые Зарубежные сериалы и Русские сериалы 2013, 2014, 2015 годов. Оставайтесь с нами, качайте любимые фильмы, игры, сериалы, книги и музыку.