img image001 image001 image001 image001 image001 image001 image001 image001 image001 image001 image001 image001 image001 image001 image001

Planets Sun Sun Sun
Статистика раздачи
Автор: Nickolas3434 | Размер: 1.5 ГБ | Добавлен: 13 сен 2015
Раздают: 80    Качают: 15
Скачать торрент
Скачать торрент
Описание торрента

СообщениеДобавлено: 13 сен 2015 


Информация о фильме
Название: О чём молчала тайга
Год выхода: 1965
Жанр: Приключения
Режиссер: Александр Курочкин
В ролях: Мурат Ахмадиев, Георгий Жжёнов, Анатолий Игнатьев, Клавдия Козленкова, Лев Поляков, Лидия Королева, Аркадий Трусов, Марина Хатунцева, Маргарита Жарова, Петр Савин
О фильме: Фильм о смелых мальчишках — таежниках, которые, несмотря на препятствия, разыскивают давно заброшенный медный рудник, вступая в схватку с незаконным претендентом на него — охотником Аникиным.

Страна: СССР
Студия: Киностудия им. М. Горького
Продолжительность: 01:19:49
Файл
Качество: DVDRip
Формат: MKV
Видео кодек: H264
Аудио кодек: AC3
Видео: MPEG4 Video (H264), 720x552, 25fps, 2500 Kbps
Аудио: Dolby AC3, 48000 Hz, 2ch, 192 kbps

General
Unique ID : 228108847444552638438497298527016507083 (0xAB9C2A7E24FE316BB351F368A1FCD6CB)
Complete name : F:Torrent 21965.molchala.tajga.renta23.mkv
Format : Matroska
Format version : Version 4 / Version 2
File size : 1.50 GiB
Duration : 1h 19mn
Overall bit rate : 2 694 Kbps
Movie name : 1965 О чём молчала тайга / renta23
Encoded date : UTC 2015-09-11 19:55:52
Writing application : mkvmerge v8.1.0 ('Psychedelic Postcard') 32bit
Writing library : libebml v1.3.1 + libmatroska v1.4.2
DURATION : 01:19:48.928000000
NUMBER_OF_FRAMES : 149654
NUMBER_OF_BYTES : 114934272
_STATISTICS_WRITING_APP : mkvmerge v8.1.0 ('Psychedelic Postcard') 32bit
_STATISTICS_WRITING_DATE_UTC : 2015-09-11 19:55:52
_STATISTICS_TAGS : BPS DURATION NUMBER_OF_FRAMES NUMBER_OF_BYTES
Video
ID : 1
Format : AVC
Format/Info : Advanced Video Codec
Format profile : High@L4.1
Format settings, CABAC : Yes
Format settings, ReFrames : 7 frames
Codec ID : V_MPEG4/ISO/AVC
Duration : 1h 19mn
Bit rate : 2 500 Kbps
Width : 720 pixels
Height : 552 pixels
Display aspect ratio : 4:3
Frame rate mode : Constant
Frame rate : 25.000 fps
Color space : YUV
Chroma subsampling : 4:2:0
Bit depth : 8 bits
Scan type : Progressive
Bits/(Pixel*Frame) : 0.252
Stream size : 1.37 GiB (91%)
Title : 1965 О чём молчала тайга
Writing library : x264 core 146 r2538 121396c
Encoding settings : cabac=1 / ref=8 / deblock=1:-1:-1 / analyse=0x3:0x113 / me=umh / subme=11 / psy=1 / psy_rd=1.15:0.25 / mixed_ref=1 / me_range=32 / chroma_me=1 / trellis=2 / 8x8dct=1 / cqm=0 / deadzone=21,11 / fast_pskip=0 / chroma_qp_offset=-4 / threads=12 / lookahead_threads=3 / sliced_threads=0 / nr=0 / decimate=0 / interlaced=0 / bluray_compat=0 / constrained_intra=0 / bframes=16 / b_pyramid=1 / b_adapt=2 / b_bias=0 / direct=3 / weightb=1 / open_gop=0 / weightp=2 / keyint=250 / keyint_min=25 / scenecut=40 / intra_refresh=0 / rc_lookahead=50 / rc=2pass / mbtree=1 / bitrate=2500 / ratetol=1.0 / qcomp=0.60 / qpmin=0 / qpmax=69 / qpstep=4 / cplxblur=20.0 / qblur=0.5 / vbv_maxrate=14000 / vbv_bufsize=14000 / nal_hrd=none / filler=0 / ip_ratio=1.40 / aq=1:1.00
Language : Russian
Default : Yes
Forced : No
Audio
ID : 2
Format : AC-3
Format/Info : Audio Coding 3
Mode extension : CM (complete main)
Format settings, Endianness : Big
Codec ID : A_AC3
Duration : 1h 19mn
Bit rate mode : Constant
Bit rate : 192 Kbps
Channel(s) : 2 channels
Channel positions : Front: L R
Sampling rate : 48.0 KHz
Bit depth : 16 bits
Compression mode : Lossy
Stream size : 110 MiB (7%)
Language : Russian
Default : Yes
Forced : No
Menu
00:00:00.000 : en:Chapter 01
00:01:55.200 : en:Chapter 02
00:05:24.480 : en:Chapter 03
00:09:40.320 : en:Chapter 04
00:15:11.520 : en:Chapter 05
00:20:30.240 : en:Chapter 06
00:25:34.560 : en:Chapter 07
00:31:43.200 : en:Chapter 08
00:36:22.080 : en:Chapter 09
00:43:22.560 : en:Chapter 10
00:47:46.080 : en:Chapter 11
00:51:05.760 : en:Chapter 12
00:56:05.280 : en:Chapter 13
00:59:16.320 : en:Chapter 14
01:03:46.080 : en:Chapter 15
01:08:15.360 : en:Chapter 16
01:12:47.040 : en:Chapter 17
01:16:35.520 : en:Chapter 18





   Похожие торренты   Торрент   Размер 
В этой теме нет новых непрочитанных сообщений. О чём молчала тайга (1965) DVDRip от Alekxandr48

10 | 4

1.37 ГБ

В этой теме нет новых непрочитанных сообщений. Тайга: Курс выживания [12 серий из 12] (2002) DVDRip

127 | 23

6.21 ГБ

В этой теме нет новых непрочитанных сообщений. О чём молчала Ванга (2011) SATRip

3 | 2

357.59 МБ

В этой теме нет новых непрочитанных сообщений. Тайга - От Души (2013) МР3

5 | 3

84.02 МБ

В этой теме нет новых непрочитанных сообщений. Тайга - Жить (2014) МР3

55 | 14

111.86 МБ

В этой теме нет новых непрочитанных сообщений. Любовь как несчастный случай / Тайга [01-04 из 04] (2012) DVB

3 | 1

7.32 ГБ

В этой теме нет новых непрочитанных сообщений. Любовь как несчастный случай / Тайга [01-02 из 02] (2012) HDTVRip

13 | 5

2.73 ГБ




Вы не можете начинать темы
Вы не можете отвечать на сообщения
Вы не можете редактировать свои сообщения
Вы не можете удалять свои сообщения
Вы не можете добавлять вложения

Перейти:  
Для Мосгорсуда, Роскомнадзора и рекламодателей: mosgorsud-torrent[собачка]yandex.ru
 Вход
ppkBB3cker v.2 © 2008-2014 @ PPK
[ Time : 0.081s | 15 Queries | GZIP : On ]

Торрент трекер RUTOR.IN, Не можете зайти на rutor.org? Какой новый адрес рутор? Какое зеркало рутор? Не работает rutor.org и зеркала? Тогда наш торрент специально для вас. Rutor.in неофициальное зеркало rutor. В случае если у Вас заблокирован rutor или вдруг Вы не можете на него зайти, то Вы без труда сможете скачать бесплатно и без рекламы последние новинки кино, игр, сериалов и прочего у нас, на Rutor.in. Не нужно использовать прокси, чтобы зайти на рутор, достаточно воспользоваться нашим ресурсом. Все новые фильмы, игры, сериалы, книги и музыка за 2013 и 2014 годы через торрент бесплатно. Скачивайте фильмы в хорошем качестве, игры для пк, xbox, playstation без регистрации. У нас вы найдете новые Зарубежные сериалы и Русские сериалы 2013, 2014, 2015 годов. Оставайтесь с нами, качайте любимые фильмы, игры, сериалы, книги и музыку.