img image001 image001 image001 image001 image001 image001 image001 image001 image001 image001 image001 image001 image001 image001 image001

Planets Sun Sun Sun
Статистика раздачи
Автор: Nickolas3434 | Размер: 3.7 ГБ | Добавлен: 14 сен 2015
Раздают: 920    Качают: 58
Скачать торрент
Скачать торрент
Описание торрента

СообщениеДобавлено: 14 сен 2015 


Информация о фильме
Название: 12 стульев
Год выхода: 1971
Жанр: Комедия
Режиссер: Леонид Гайдай
В ролях: Арчил Гомиашвили, Сергей Филиппов, Михаил Пуговкин, Гликерия Богданова-Чеснокова, Наталья Варлей, Наталья Воробьева, Нина Гребешкова, Наталья Крачковская, Клара Румянова, Георгий Вицин, Николай Горлов, Юрий Никулин, Виктор Павлов, Готлиб Ронинсон, Роман Филиппов, Григорий Шпигель, Владимир Этуш, Игорь Ясулович, Нина Агапова, Рина Зеленая, Ирина Мурзаева, Евдокия Урусова, Руслан Ахметов, Эдуард Бредун, Павел Винник, Эраст Гарин, Ш. Геджадзе, Георгий Георгиу, Алик Денисов, В. Дорофеев, Иван Жеваго, Виктор Колпаков, Юрий Медведев, Раднэр Муратов, Н. Пажитнов, В. Ферапонтов, Александр Хвыля, Савелий Крамаров, Ростислав Плятт, Леонид Гайдай
О фильме: Первая серия - "Лед тронулся", вторая серия - "Заседание продолжается".
Комедийная лента, рассказывающая о похождениях самого, пожалуй, популярного и любимого в народе литературного героя. Остап Бендер с Ипполитом Матвеевичем Воробьяниновым ищут фамильные драгоценности, которые покойная теща Воробьянинова спрятала в одном из стульев столового гарнитура. Параллельно с ними поисками сокровищ занимается священник отец Федор, которому эта "страшная" тайна была открыта на исповеди.
Страна: СССР
Продолжительность: 2 х ~ 01:16:00
Перевод: не требуется
Файл
Кодек: x264
Качество: DVDRip-AVC
Видео: MPEG-4 AVC, 2898 Кбит/с, 716x576@764x576, 714x576@762x576
Звук: AC3, 6 ch, 448 Кбит/с

raw [info]: 716x576p 16:15 @ 25/1 fps (cfr)
x264 [info]: using SAR=16/15
x264 [info]: using cpu capabilities: MMX2 SSE2Fast SSSE3 SSE4.2 AVX
x264 [info]: profile High, level 4.1
x264 [info]: frame I:733 Avg QP:20.48 size: 75144
x264 [info]: frame P:29778 Avg QP:22.18 size: 34136
x264 [info]: frame B:84947 Avg QP:24.07 size: 7531
===========================================================================================================
Общее
Уникальный идентификатор : 180280901807478253567448010845782014777 (0x87A0D6B64D72188DBFD4B3478EF7FB39)
Полное имя : D:Стулья-1.mkv
Формат : Matroska
Версия формата : Version 2
Размер файла : 1,84 Гбайт
Продолжительность : 1 ч. 16 м.
Общий поток : 3414 Кбит/сек
Дата кодирования : UTC 2015-09-13 04:24:03
Программа кодирования : mkvmerge v5.8.0 ('No Sleep / Pillow') built on Sep 2 2012 15:37:04
Библиотека кодирования : libebml v1.2.3 + libmatroska v1.3.0
Видео
Идентификатор : 1
Формат : AVC
Формат/Информация : Advanced Video Codec
Профиль формата : High@L4.1
Параметр CABAC формата : Да
Параметр ReFrames формата : 14 кадров
Идентификатор кодека : V_MPEG4/ISO/AVC
Продолжительность : 1 ч. 16 м.
Битрейт : 2898 Кбит/сек
Ширина : 716 пикселей
Высота : 576 пикселей
Соотношение сторон : 4:3
Режим частоты кадров : Постоянный
Частота кадров : 25,000 кадров/сек
Цветовое пространство : YUV
Субдискретизация насыщенности : 4:2:0
Битовая глубина : 8 бит
Тип развёртки : Прогрессивная
Бит/(Пиксели*Кадры) : 0.281
Размер потока : 1,56 Гбайт (85%)
Библиотека кодирования : x264 core 146 r2538 121396c
Настройки программы : cabac=1 / ref=14 / deblock=1:-2:-2 / analyse=0x3:0x133 / me=umh / subme=11 / psy=1 / psy_rd=1.03:0.05 / mixed_ref=1 / me_range=32 / chroma_me=1 / trellis=2 / 8x8dct=1 / cqm=0 / deadzone=21,11 / fast_pskip=1 / chroma_qp_offset=-3 / threads=12 / lookahead_threads=2 / sliced_threads=0 / nr=0 / decimate=1 / interlaced=0 / bluray_compat=0 / constrained_intra=0 / bframes=8 / b_pyramid=2 / b_adapt=2 / b_bias=0 / direct=1 / weightb=1 / open_gop=0 / weightp=2 / keyint=250 / keyint_min=25 / scenecut=40 / intra_refresh=0 / rc=crf / mbtree=0 / crf=18.9 / qcomp=0.65 / qpmin=0 / qpmax=45 / qpstep=4 / ip_ratio=1.40 / pb_ratio=1.30 / aq=1:1.00
Язык : English
Default : Да
Forced : Нет
Основные цвета : BT.601 PAL
Характеристики трансфера : BT.470 System B, BT.470 System G
Коэффициенты матрицы : BT.601
Аудио
Идентификатор : 2
Формат : AC-3
Формат/Информация : Audio Coding 3
Расширение режима : CM (complete main)
Параметр Endianness формата : Big
Идентификатор кодека : A_AC3
Продолжительность : 1 ч. 16 м.
Вид битрейта : Постоянный
Битрейт : 448 Кбит/сек
Каналы : 6 каналов
Расположение каналов : Front: L C R, Side: L R, LFE
Частота : 48,0 КГц
Битовая глубина : 16 бит
Метод сжатия : С потерями
Задержка видео : 1 с. 993 мс.
Размер потока : 247 Мбайт (13%)
Язык : Russian
Default : Да
Forced : Нет

Релиз от:
Автор релиза:



   Похожие торренты   Торрент   Размер 
В этой теме нет новых непрочитанных сообщений. 12 стульев (1971) DVDRip от Youtracker

202 | 19

2.82 ГБ

В этой теме нет новых непрочитанных сообщений. 12 стульев (1971) DVDRip от MediaClub | КПК

247 | 32

690.46 МБ

В этой теме нет новых непрочитанных сообщений. 12 стульев (1971) DVDRip от Youtracker

344 | 19

1.45 ГБ

В этой теме нет новых непрочитанных сообщений. 12 стульев (1971) DVDRip-AVC от Youtracker

268 | 20

2.19 ГБ

В этой теме нет новых непрочитанных сообщений. 12 стульев (1971) WEB-DLRip

89 | 0

2.19 ГБ

В этой теме нет новых непрочитанных сообщений. 12 стульев (1971) 2хDVD5 | Реставрация

402 | 21

7.83 ГБ

В этой теме нет новых непрочитанных сообщений. Бумбараш (1971) DVDRip-AVC от ExKinoRay

529 | 39

2.9 ГБ




Вы не можете начинать темы
Вы не можете отвечать на сообщения
Вы не можете редактировать свои сообщения
Вы не можете удалять свои сообщения
Вы не можете добавлять вложения

Перейти:  
Для Мосгорсуда, Роскомнадзора и рекламодателей: mosgorsud-torrent[собачка]yandex.ru
 Вход
ppkBB3cker v.2 © 2008-2014 @ PPK
[ Time : 0.030s | 16 Queries | GZIP : Off ]

Торрент трекер RUTOR.IN, Не можете зайти на rutor.org? Какой новый адрес рутор? Какое зеркало рутор? Не работает rutor.org и зеркала? Тогда наш торрент специально для вас. Rutor.in неофициальное зеркало rutor. В случае если у Вас заблокирован rutor или вдруг Вы не можете на него зайти, то Вы без труда сможете скачать бесплатно и без рекламы последние новинки кино, игр, сериалов и прочего у нас, на Rutor.in. Не нужно использовать прокси, чтобы зайти на рутор, достаточно воспользоваться нашим ресурсом. Все новые фильмы, игры, сериалы, книги и музыка за 2013 и 2014 годы через торрент бесплатно. Скачивайте фильмы в хорошем качестве, игры для пк, xbox, playstation без регистрации. У нас вы найдете новые Зарубежные сериалы и Русские сериалы 2013, 2014, 2015 годов. Оставайтесь с нами, качайте любимые фильмы, игры, сериалы, книги и музыку.