img image001 image001 image001 image001 image001 image001 image001 image001 image001 image001 image001 image001 image001 image001 image001

Planets Sun Sun Sun
Статистика раздачи
Автор: Nickolas3434 | Размер: 739.55 МБ | Добавлен: 15 сен 2015
Раздают: 1505    Качают: 56
Скачать торрент
Скачать торрент
Описание торрента

СообщениеДобавлено: 15 сен 2015 


Информация о фильме
Название: Синдром недосказанности
Год выхода: 2015
Жанр: Мелодрама
Режиссер: Сергей Лялин
В ролях: Ольга Павловец, Юрий Батурин, Елена Корикова, Виталий Кудрявцев, Мария Палей, Данила Шевченко
О фильме:
Антон и Юля собираются пожениться и устраивают вечер знакомства для своих родителей. Неожиданно выясняется, что Лариса, мать Антона, и Владимир, отец Юли, в юности были знакомы друг с другом. Более того, скромная и неприметная Лариса была влюблена в обеспеченного и высокомерного Владимира и сама стала инициатором их близости... Теперь Владимир - успешный бизнесмен, на его попечении любимая дочь Юля и жена-инвалид. Энергичный и здоровый мужчина, он с интересом смотрит на милую и обаятельную Ларису, неожиданно вновь возникшую в его жизни... Встреча с Владимиром всколыхнула давние чувства Ларисы. Не в силах справиться с собой, Лариса обращается за помощью к психологу. Психолог называет её состояние "синдромом недосказанности" и предлагает единственно верный способ избавиться от него - переспать с бывшим любовником...

Страна: Россия
Студия: Кинокомпания "Русское"
Продолжительность: 01:32:54
Перевод: Не требуется
Файл
Кодек: XviD
Качество: HDTVRip
Видео: 624x352 (1.77:1), 25 fps, XviD build 73 ~975 kbps avg, 0.18 bit/pixel
Звук: 48 kHz, MPEG Layer 3, 2 ch, ~128.00 kbps avg
Субтитры: Отсутствуют
Семпл
General
Complete name : D:Изготовление риповSindrom.nedoskazannosti.2015.HDTVRip.by shkiper.avi
Format : AVI
Format/Info : Audio Video Interleave
File size : 740 MiB
Duration : 1h 32mn
Overall bit rate : 1 113 Kbps
Writing application : VirtualDubMod 1.5.10.3 | www.virtualdub-fr.org || (build 2550/release)
Writing library : VirtualDubMod build 2550/release
Video
ID : 0
Format : MPEG-4 Visual
Format profile : Advanced Simple@L5
Format settings, BVOP : 1
Format settings, QPel : No
Format settings, GMC : No warppoints
Format settings, Matrix : Custom
Codec ID : XVID
Codec ID/Hint : XviD
Duration : 1h 32mn
Bit rate : 975 Kbps
Width : 624 pixels
Height : 352 pixels
Display aspect ratio : 16:9
Frame rate : 25.000 fps
Color space : YUV
Chroma subsampling : 4:2:0
Bit depth : 8 bits
Scan type : Progressive
Compression mode : Lossy
Bits/(Pixel*Frame) : 0.178
Stream size : 648 MiB (88%)
Writing library : XviD 73
Audio
ID : 1
Format : MPEG Audio
Format version : Version 1
Format profile : Layer 3
Mode : Joint stereo
Mode extension : MS Stereo
Codec ID : 55
Codec ID/Hint : MP3
Duration : 1h 32mn
Bit rate mode : Constant
Bit rate : 128 Kbps
Channel(s) : 2 channels
Sampling rate : 48.0 KHz
Compression mode : Lossy
Stream size : 85.1 MiB (12%)
Alignment : Aligned on interleaves
Interleave, duration : 40 ms (1.00 video frame)
Interleave, preload duration : 504 ms
Writing library : LAME3.99r
Encoding settings : -m j -V 4 -q 2 -lowpass 17 -b 128

Релиз от:



   Похожие торренты   Торрент   Размер 
В этой теме нет новых непрочитанных сообщений. Синдром недосказанности (2015) HDTVRip от Files-x

959 | 31

1.37 ГБ

В этой теме нет новых непрочитанных сообщений. Синдром недосказанности (2015) HDTVRip-AVC от Files-x

281 | 12

1.37 ГБ

В этой теме нет новых непрочитанных сообщений. Синдром недосказанности (2015) HDTVRip 720p от MediaClub

206 | 16

2.43 ГБ

В этой теме нет новых непрочитанных сообщений. Синдром недосказанности (2015) DVB от Files-x

72 | 3

1.84 ГБ

В этой теме нет новых непрочитанных сообщений. Синдром недосказанности (2015) WEB-DLRip-AVC от Files-x

70 | 3

1.37 ГБ

В этой теме нет новых непрочитанных сообщений. Синдром недосказанности (2015) WEB-DLRip от Files-x

57 | 3

1.36 ГБ

В этой теме нет новых непрочитанных сообщений. Синдром недосказанности (2015) HDTV (1080i) от Files-x

194 | 6

3.25 ГБ




Вы не можете начинать темы
Вы не можете отвечать на сообщения
Вы не можете редактировать свои сообщения
Вы не можете удалять свои сообщения
Вы не можете добавлять вложения

Перейти:  
Для Мосгорсуда, Роскомнадзора и рекламодателей: mosgorsud-torrent[собачка]yandex.ru
 Вход
ppkBB3cker v.2 © 2008-2014 @ PPK
[ Time : 0.044s | 15 Queries | GZIP : Off ]

Торрент трекер RUTOR.IN, Не можете зайти на rutor.org? Какой новый адрес рутор? Какое зеркало рутор? Не работает rutor.org и зеркала? Тогда наш торрент специально для вас. Rutor.in неофициальное зеркало rutor. В случае если у Вас заблокирован rutor или вдруг Вы не можете на него зайти, то Вы без труда сможете скачать бесплатно и без рекламы последние новинки кино, игр, сериалов и прочего у нас, на Rutor.in. Не нужно использовать прокси, чтобы зайти на рутор, достаточно воспользоваться нашим ресурсом. Все новые фильмы, игры, сериалы, книги и музыка за 2013 и 2014 годы через торрент бесплатно. Скачивайте фильмы в хорошем качестве, игры для пк, xbox, playstation без регистрации. У нас вы найдете новые Зарубежные сериалы и Русские сериалы 2013, 2014, 2015 годов. Оставайтесь с нами, качайте любимые фильмы, игры, сериалы, книги и музыку.