img image001 image001 image001 image001 image001 image001 image001 image001 image001 image001 image001 image001 image001 image001 image001

Planets Sun Sun Sun
Статистика раздачи
Автор: Nickolas3434 | Размер: 1.4 ГБ | Добавлен: 16 сен 2015
Раздают: 40    Качают: 12
Скачать торрент
Скачать торрент
Описание торрента

СообщениеДобавлено: 16 сен 2015 


Информация о фильме
Название: Ксения, любимая жена Федора
Год выхода: 1974
Жанр: Мелодрама
Режиссер: Виталий Мельников
В ролях: Станислав Любшин, Алла Мещерякова, Мария Артемова, Олег Белов, Лаура Геворкян, Зинаида Дорогова, Лев Дуров, Людмила Зайцева, Нина Ильина, Мамикон Манукян, Василий Меркурьев, Игорь Нагавкин, Владимир Рындин, Владимир Татосов, Армен Хостикян, Азат Шеренц
О фильме: В семье строителей атомной электростанции скоро родится ребенок и потому все происходящее Ксения невольносоотносит с этим событием. Заметив за женой тягу к уединению, Федор останется тактичным и мужественным. Пройдет время и супруги, как Филимон и Бавкида, будут счастливы. Фильм о любви, о непростых семейных отношениях, о душевной ёмкостии щедрости - о том, что необходимо в жизни каждому человеку.
Страна: СССР
Продолжительность: 01:23:46
Перевод: не требуется
Файл
Кодек: x264
Качество: DVDRip-AVC
Видео: MPEG-4 AVC, 2200 Кбит/с, 714x576@762x576
Звук: AC3, 2 ch, 192 Кбит/с

raw [info]: 714x576p 16:15 @ 25/1 fps (cfr)
x264 [info]: using SAR=16/15
x264 [info]: using cpu capabilities: MMX2 SSE2Fast SSSE3 SSE4.2 AVX
x264 [info]: profile High, level 4.1
x264 [info]: frame I:614 Avg QP:16.51 size: 70335
x264 [info]: frame P:32402 Avg QP:20.36 size: 24435
x264 [info]: frame B:92634 Avg QP:21.53 size: 5913
=============================================================================================================
Общее
Уникальный идентификатор : 185842419683837647679707389978530338114 (0x8BCFF2B6B95DAC54A4F2DC4FC194D542)
Полное имя : D:Ксения, любимая жена Фёдора_1974-DVDRip-AVC.mkv
Формат : Matroska
Версия формата : Version 2
Размер файла : 1,40 Гбайт
Продолжительность : 1 ч. 23 м.
Общий поток : 2395 Кбит/сек
Дата кодирования : UTC 2015-09-14 19:57:41
Программа кодирования : mkvmerge v5.8.0 ('No Sleep / Pillow') built on Sep 2 2012 15:37:04
Библиотека кодирования : libebml v1.2.3 + libmatroska v1.3.0
Видео
Идентификатор : 1
Формат : AVC
Формат/Информация : Advanced Video Codec
Профиль формата : High@L4.1
Параметр CABAC формата : Да
Параметр ReFrames формата : 14 кадров
Идентификатор кодека : V_MPEG4/ISO/AVC
Продолжительность : 1 ч. 23 м.
Битрейт : 2200 Кбит/сек
Ширина : 714 пикселей
Высота : 576 пикселей
Соотношение сторон : 4:3
Соотношение сторон в оригинале : 4:3
Режим частоты кадров : Постоянный
Частота кадров : 25,000 кадров/сек
Цветовое пространство : YUV
Субдискретизация насыщенности : 4:2:0
Битовая глубина : 8 бит
Тип развёртки : Прогрессивная
Бит/(Пиксели*Кадры) : 0.214
Размер потока : 1,26 Гбайт (90%)
Библиотека кодирования : x264 core 146 r2538 121396c
Настройки программы : cabac=1 / ref=14 / deblock=1:-2:-2 / analyse=0x3:0x133 / me=umh / subme=10 / psy=1 / psy_rd=1.02:0.07 / mixed_ref=1 / me_range=32 / chroma_me=1 / trellis=2 / 8x8dct=1 / cqm=0 / deadzone=21,11 / fast_pskip=0 / chroma_qp_offset=-3 / threads=12 / lookahead_threads=2 / sliced_threads=0 / nr=0 / decimate=0 / interlaced=0 / bluray_compat=0 / constrained_intra=0 / bframes=8 / b_pyramid=2 / b_adapt=2 / b_bias=0 / direct=3 / weightb=1 / open_gop=0 / weightp=2 / keyint=250 / keyint_min=25 / scenecut=40 / intra_refresh=0 / rc=2pass / mbtree=0 / bitrate=2200 / ratetol=1.0 / qcomp=0.65 / qpmin=0 / qpmax=39 / qpstep=4 / cplxblur=20.0 / qblur=0.5 / ip_ratio=1.40 / pb_ratio=1.30 / aq=1:1.00
Язык : English
Default : Да
Forced : Нет
Основные цвета : BT.601 PAL
Характеристики трансфера : BT.470 System B, BT.470 System G
Коэффициенты матрицы : BT.601
Аудио
Идентификатор : 2
Формат : AC-3
Формат/Информация : Audio Coding 3
Расширение режима : CM (complete main)
Параметр Endianness формата : Big
Идентификатор кодека : A_AC3
Продолжительность : 1 ч. 23 м.
Вид битрейта : Постоянный
Битрейт : 192 Кбит/сек
Каналы : 2 канала
Расположение каналов : Front: L R
Частота : 48,0 КГц
Битовая глубина : 16 бит
Метод сжатия : С потерями
Размер потока : 115 Мбайт (8%)
Язык : Russian
Default : Да
Forced

Релиз от:
Автор релиза:



   Похожие торренты   Торрент   Размер 
В этой теме нет новых непрочитанных сообщений. Ксения, любимая жена Федора (1974) DVDRip

23 | 27

1.37 ГБ

В этой теме нет новых непрочитанных сообщений. Жена как жертва / Ikenie Fujin (1974) DVDRip | A

199 | 40

728.79 МБ

В этой теме нет новых непрочитанных сообщений. Жена как жертва / Принести жену в жертву / Ikenie Fujin / Wife to Be Sacrificed (1974) DVDRip от ImperiaFilm | A

23 | 2

1.74 ГБ

В этой теме нет новых непрочитанных сообщений. Любимая теща / Belle Maman (1999) DVDRip от ExKinoRay

29 | 1

1.37 ГБ

В этой теме нет новых непрочитанных сообщений. Любимая женщина механика Гаврилова (1982) DVDRip-AVC от ExKinoRay

292 | 15

1.58 ГБ

В этой теме нет новых непрочитанных сообщений. Предельно личные отношения: Песня любви 1974 года / Gokushiteki Erosu: Renka 1974 (1974) DVDRip | Sub

37 | 118

1.07 ГБ

В этой теме нет новых непрочитанных сообщений. Жена как жертва / Принести жену в жертву / Ikenie Fujin / Wife to Be Sacrificed (1974) DVD5 | A

9 | 1

3.81 ГБ




Вы не можете начинать темы
Вы не можете отвечать на сообщения
Вы не можете редактировать свои сообщения
Вы не можете удалять свои сообщения
Вы не можете добавлять вложения

Перейти:  
Для Мосгорсуда, Роскомнадзора и рекламодателей: mosgorsud-torrent[собачка]yandex.ru
 Вход
ppkBB3cker v.2 © 2008-2014 @ PPK
[ Time : 0.038s | 15 Queries | GZIP : Off ]

Торрент трекер RUTOR.IN, Не можете зайти на rutor.org? Какой новый адрес рутор? Какое зеркало рутор? Не работает rutor.org и зеркала? Тогда наш торрент специально для вас. Rutor.in неофициальное зеркало rutor. В случае если у Вас заблокирован rutor или вдруг Вы не можете на него зайти, то Вы без труда сможете скачать бесплатно и без рекламы последние новинки кино, игр, сериалов и прочего у нас, на Rutor.in. Не нужно использовать прокси, чтобы зайти на рутор, достаточно воспользоваться нашим ресурсом. Все новые фильмы, игры, сериалы, книги и музыка за 2013 и 2014 годы через торрент бесплатно. Скачивайте фильмы в хорошем качестве, игры для пк, xbox, playstation без регистрации. У нас вы найдете новые Зарубежные сериалы и Русские сериалы 2013, 2014, 2015 годов. Оставайтесь с нами, качайте любимые фильмы, игры, сериалы, книги и музыку.
cron