img image001 image001 image001 image001 image001 image001 image001 image001 image001 image001 image001 image001 image001 image001 image001

Planets Sun Sun Sun
Статистика раздачи
Автор: Nickolas3434 | Размер: 3.21 ГБ | Добавлен: 16 сен 2015
Раздают: 15    Качают: 2
Скачать торрент
Скачать торрент
Описание торрента

СообщениеДобавлено: 16 сен 2015 


Информация о фильме
Название: Диалог
Год выхода: 1977
Жанр: Драма, политический
Режиссер: Сергей Колосов
В ролях: Вячеслав Тихонов, Людмила Касаткина, Иван Лапиков, Хорст Дринда, Андрей Попов, Владлен Давыдов, Михаил Погоржельский, Георгий Сорокин, Родион Александров, Александр Александровский, Хайнц Йозеф Браун, Степан Бубнов, Мария Виноградова, Пётр Вишняков, Юрий Волков, Людмила Карауш, Игорь Кашинцев, Улдис Лиелдидж, Леонид Недович, Элеонора Прохницкая
О фильме: О совместной работе советского журналиста Александра Ершова и западногерманского кинорежиссера Петера Крашке над документально-публицистическим фильмом, посвященном разрядке международной напряженности в конце 70-х годов.
Страна: СССР, Мосфильм
Продолжительность: 3 х ~ 01:08:14
Перевод: не требуется
Файл
Кодек: x264
Качество: SATRip-AVC
Видео: MPEG-4 AVC, 2050 Кбит/с, 710x572@758x572
Звук: AC3, 2 ch, 192 Кбит/с

Общее
Уникальный идентификатор : 176257369028728795964872908281153717379 (0x8499EF3AF128EF1AB3254C8D1B1A0483)
Полное имя : D:DVDДиалог_1977-SATRip-AVCДиалог-1.mkv
Формат : Matroska
Версия формата : Version 2
Размер файла : 1,12 Гбайт
Продолжительность : 1 ч. 11 м.
Общий поток : 2244 Кбит/сек
Дата кодирования : UTC 2015-06-02 14:54:08
Программа кодирования : mkvmerge v5.8.0 ('No Sleep / Pillow') built on Sep 2 2012 15:37:04
Библиотека кодирования : libebml v1.2.3 + libmatroska v1.3.0
Видео
Идентификатор : 1
Формат : AVC
Формат/Информация : Advanced Video Codec
Профиль формата : High@L4.1
Параметр CABAC формата : Да
Параметр ReFrames формата : 14 кадров
Идентификатор кодека : V_MPEG4/ISO/AVC
Продолжительность : 1 ч. 11 м.
Битрейт : 2050 Кбит/сек
Ширина : 710 пикселей
Высота : 572 пикселя
Соотношение сторон : 4:3
Соотношение сторон в оригинале : 4:3
Режим частоты кадров : Постоянный
Частота кадров : 25,000 кадров/сек
Цветовое пространство : YUV
Субдискретизация насыщенности : 4:2:0
Битовая глубина : 8 бит
Тип развёртки : Прогрессивная
Бит/(Пиксели*Кадры) : 0.202
Размер потока : 1,01 Гбайт (89%)
Библиотека кодирования : x264 core 146 r2538 121396c
Настройки программы : cabac=1 / ref=14 / deblock=1:-2:-2 / analyse=0x3:0x133 / me=umh / subme=10 / psy=1 / psy_rd=1.05:0.13 / mixed_ref=1 / me_range=32 / chroma_me=1 / trellis=2 / 8x8dct=1 / cqm=0 / deadzone=21,11 / fast_pskip=0 / chroma_qp_offset=-3 / threads=12 / lookahead_threads=2 / sliced_threads=0 / nr=0 / decimate=0 / interlaced=0 / bluray_compat=0 / constrained_intra=0 / bframes=8 / b_pyramid=2 / b_adapt=2 / b_bias=0 / direct=3 / weightb=1 / open_gop=0 / weightp=2 / keyint=250 / keyint_min=25 / scenecut=40 / intra_refresh=0 / rc=2pass / mbtree=0 / bitrate=2050 / ratetol=1.0 / qcomp=0.65 / qpmin=0 / qpmax=39 / qpstep=4 / cplxblur=20.0 / qblur=0.5 / ip_ratio=1.40 / pb_ratio=1.30 / aq=1:1.00
Язык : English
Default : Да
Forced : Нет
Основные цвета : BT.601 PAL
Характеристики трансфера : BT.470 System B, BT.470 System G
Коэффициенты матрицы : BT.601
Аудио
Идентификатор : 2
Формат : AC-3
Формат/Информация : Audio Coding 3
Расширение режима : CM (complete main)
Параметр Endianness формата : Big
Идентификатор кодека : A_AC3
Продолжительность : 1 ч. 11 м.
Вид битрейта : Постоянный
Битрейт : 192 Кбит/сек
Каналы : 2 канала
Расположение каналов : Front: L R
Частота : 48,0 КГц
Битовая глубина : 16 бит
Метод сжатия : С потерями
Задержка видео : 16 мс.
Размер потока : 98,5 Мбайт (9%)
Язык : Russian
Default : Да
Forced : Нет

Релиз от:
Автор релиза:



   Похожие торренты   Торрент   Размер 
В этой теме нет новых непрочитанных сообщений. Диалог глухих / Dialogue de sourds (1985) SATRip

4 | 3

157.95 МБ

В этой теме нет новых непрочитанных сообщений. Хождение по мукам [01-13 из 13] (1977) SATRip-AVC от ExKinoRay

75 | 32

16.02 ГБ

В этой теме нет новых непрочитанных сообщений. Транссибирский экспресс (1977) SATRip-AVC от ExKinoRay

60 | 13

1.35 ГБ

В этой теме нет новых непрочитанных сообщений. Диалог с моим садовником / Dialogue avec mon jardinier (2007) DVDRip

211 | 45

1.46 ГБ

В этой теме нет новых непрочитанных сообщений. Диалог под часами. Иван Охлобыстин с протоиереем Димитрием Смирновым (2011) WEBRip-AVC

0 | 2

253.63 МБ

В этой теме нет новых непрочитанных сообщений. Диалог под часами. Пётр Мамонов с протоиереем Димитрием Смирновым (2011) WEBRip-AVC

5 | 3

145.74 МБ

В этой теме нет новых непрочитанных сообщений. Диалог с моим садовником / Dialogue avec mon jardinier (2007) DVDRip от Scarabey | НТВ

30 | 5

745.18 МБ




Вы не можете начинать темы
Вы не можете отвечать на сообщения
Вы не можете редактировать свои сообщения
Вы не можете удалять свои сообщения
Вы не можете добавлять вложения

Перейти:  
Для Мосгорсуда, Роскомнадзора и рекламодателей: mosgorsud-torrent[собачка]yandex.ru
 Вход
ppkBB3cker v.2 © 2008-2014 @ PPK
[ Time : 0.046s | 14 Queries | GZIP : Off ]

Торрент трекер RUTOR.IN, Не можете зайти на rutor.org? Какой новый адрес рутор? Какое зеркало рутор? Не работает rutor.org и зеркала? Тогда наш торрент специально для вас. Rutor.in неофициальное зеркало rutor. В случае если у Вас заблокирован rutor или вдруг Вы не можете на него зайти, то Вы без труда сможете скачать бесплатно и без рекламы последние новинки кино, игр, сериалов и прочего у нас, на Rutor.in. Не нужно использовать прокси, чтобы зайти на рутор, достаточно воспользоваться нашим ресурсом. Все новые фильмы, игры, сериалы, книги и музыка за 2013 и 2014 годы через торрент бесплатно. Скачивайте фильмы в хорошем качестве, игры для пк, xbox, playstation без регистрации. У нас вы найдете новые Зарубежные сериалы и Русские сериалы 2013, 2014, 2015 годов. Оставайтесь с нами, качайте любимые фильмы, игры, сериалы, книги и музыку.