img image001 image001 image001 image001 image001 image001 image001 image001 image001 image001 image001 image001 image001 image001 image001

Planets Sun Sun Sun
Статистика раздачи
Автор: Nickolas3434 | Размер: 2.13 ГБ | Добавлен: 16 сен 2015
Раздают: 379    Качают: 23
Скачать торрент
Скачать торрент
Описание торрента

СообщениеДобавлено: 16 сен 2015 


Информация о фильме
Название: Моонзунд
Год выхода: 1987
Жанр: Драма, военный, история, экранизация
Режиссер: Александр Муратов
В ролях: Олег Меньшиков, Владимир Гостюхин, Людмила Нильская, Николай Караченцов, Юрий Беляев, Борис Клюев, Вия Артмане, Алексей Булдаков, Владимир Баранов, Евгения Добровольская, Евгений Евстигнеев, Сергей Гармаш, Владимир Ерёмин, Владимир Головин, Геннадий Богачёв, Виктор Бычков, Василий Чириков, Герман Дмитриев, Игорь Добряков, Юрий Гончаров, Артём Иноземцев, Георгий Корольчук, Валерий Кузин, Вадим Лобанов, Сергей Лосев, Никита Макарьев, Алексей Михайлов, Вадим Пашков, Андрей Петров, Эрнст Романов, Виктор Семёнов
О фильме: События картины разворачиваются на Балтике в 1915-1917 годах. Герои фильма — офицеры и рядовые матросы Балтийского флота. Старший лейтенант Артеньев — храбрый, волевой офицер, человек чести. Он любит, и любим, но его любимая — Клара — работает на контрразведку, и быть вместе они не могут. Не поддерживая бунтарских настроений матросов на своем корабле, Артеньев берет на себя командование батареей, защищающей самое опасное место в обороне против немцев. Он ищет смерти… По мотивам романа В. Пикуля.
Страна: СССР, Ленфильм
Продолжительность: 02:13:27
Перевод: не требуется
Файл
Кодек: x264
Качество: DVDRip-AVC
Видео: MPEG-4 AVC, 2086 Кбит/с, 720x556@768x556
Звук: AC3, 2 ch, 192 Кбит/с

Общее
Уникальный идентификатор : 225576553965450932460989060782300211714 (0xA9B476C8ECD6CE6A994FFA999E762A02)
Полное имя : D:Моонзунд_1987-DVDRip-AVC.mkv
Формат : Matroska
Версия формата : Version 2
Размер файла : 2,13 Гбайт
Продолжительность : 2 ч. 13 м.
Общий поток : 2280 Кбит/сек
Дата кодирования : UTC 2015-09-15 07:02:02
Программа кодирования : mkvmerge v5.8.0 ('No Sleep / Pillow') built on Sep 2 2012 15:37:04
Библиотека кодирования : libebml v1.2.3 + libmatroska v1.3.0
Видео
Идентификатор : 1
Формат : AVC
Формат/Информация : Advanced Video Codec
Профиль формата : High@L4.1
Параметр CABAC формата : Да
Параметр ReFrames формата : 15 кадров
Идентификатор кодека : V_MPEG4/ISO/AVC
Продолжительность : 2 ч. 13 м.
Битрейт : 2042 Кбит/сек
Ширина : 720 пикселей
Высота : 556 пикселей
Соотношение сторон : 1,381
Режим частоты кадров : Постоянный
Частота кадров : 25,000 кадров/сек
Цветовое пространство : YUV
Субдискретизация насыщенности : 4:2:0
Битовая глубина : 8 бит
Тип развёртки : Прогрессивная
Бит/(Пиксели*Кадры) : 0.204
Размер потока : 1,90 Гбайт (90%)
Библиотека кодирования : x264 core 146 r2538 121396c
Настройки программы : cabac=1 / ref=15 / deblock=1:-2:-2 / analyse=0x3:0x133 / me=umh / subme=10 / psy=1 / psy_rd=1.05:0.03 / mixed_ref=1 / me_range=32 / chroma_me=1 / trellis=2 / 8x8dct=1 / cqm=0 / deadzone=21,11 / fast_pskip=1 / chroma_qp_offset=-3 / threads=12 / lookahead_threads=3 / sliced_threads=0 / nr=0 / decimate=1 / interlaced=0 / bluray_compat=0 / constrained_intra=0 / bframes=10 / b_pyramid=2 / b_adapt=2 / b_bias=0 / direct=1 / weightb=1 / open_gop=0 / weightp=2 / keyint=250 / keyint_min=25 / scenecut=40 / intra_refresh=0 / rc=crf / mbtree=0 / crf=18.8 / qcomp=0.65 / qpmin=0 / qpmax=39 / qpstep=4 / ip_ratio=1.40 / pb_ratio=1.30 / aq=1:1.00
Язык : English
Default : Да
Forced : Нет
Основные цвета : BT.601 PAL
Характеристики трансфера : BT.470 System B, BT.470 System G
Коэффициенты матрицы : BT.601
Аудио
Идентификатор : 2
Формат : AC-3
Формат/Информация : Audio Coding 3
Расширение режима : CM (complete main)
Параметр Endianness формата : Big
Идентификатор кодека : A_AC3
Продолжительность : 2 ч. 13 м.
Вид битрейта : Постоянный
Битрейт : 192 Кбит/сек
Каналы : 2 канала
Расположение каналов : Front: L R
Частота : 48,0 КГц
Битовая глубина : 16 бит
Метод сжатия : С потерями
Размер потока : 183 Мбайт (8%)
Язык : Russian
Default : Да
Forced : Нет

Релиз от:
Автор релиза:



   Похожие торренты   Торрент   Размер 
В этой теме нет новых непрочитанных сообщений. Моонзунд (1987) DVDRip от -=HD-NET=-

90 | 11

1.45 ГБ

В этой теме нет новых непрочитанных сообщений. Моонзунд (1987) DVDRip

250 | 25

1.46 ГБ

В этой теме нет новых непрочитанных сообщений. Моонзунд (1987) DVD5

4 | 4

4.36 ГБ

В этой теме нет новых непрочитанных сообщений. Очи чёрные (1987) DVDRip-AVC от ExKinoRay

153 | 37

2.22 ГБ

В этой теме нет новых непрочитанных сообщений. Разорванный круг (1987) DVDRip-AVC от ExKinoRay

187 | 29

1.33 ГБ

В этой теме нет новых непрочитанных сообщений. Энигма / Aenigma (1987) DVDRip от ExKinoRay

1 | 4

1.37 ГБ

В этой теме нет новых непрочитанных сообщений. Забытая мелодия для флейты (1987) DVDRip-AVC от ExKinoRay

84 | 19

2.86 ГБ




Вы не можете начинать темы
Вы не можете отвечать на сообщения
Вы не можете редактировать свои сообщения
Вы не можете удалять свои сообщения
Вы не можете добавлять вложения

Перейти:  
Для Мосгорсуда, Роскомнадзора и рекламодателей: mosgorsud-torrent[собачка]yandex.ru
 Вход
ppkBB3cker v.2 © 2008-2014 @ PPK
[ Time : 0.075s | 14 Queries | GZIP : Off ]

Торрент трекер RUTOR.IN, Не можете зайти на rutor.org? Какой новый адрес рутор? Какое зеркало рутор? Не работает rutor.org и зеркала? Тогда наш торрент специально для вас. Rutor.in неофициальное зеркало rutor. В случае если у Вас заблокирован rutor или вдруг Вы не можете на него зайти, то Вы без труда сможете скачать бесплатно и без рекламы последние новинки кино, игр, сериалов и прочего у нас, на Rutor.in. Не нужно использовать прокси, чтобы зайти на рутор, достаточно воспользоваться нашим ресурсом. Все новые фильмы, игры, сериалы, книги и музыка за 2013 и 2014 годы через торрент бесплатно. Скачивайте фильмы в хорошем качестве, игры для пк, xbox, playstation без регистрации. У нас вы найдете новые Зарубежные сериалы и Русские сериалы 2013, 2014, 2015 годов. Оставайтесь с нами, качайте любимые фильмы, игры, сериалы, книги и музыку.