img image001 image001 image001 image001 image001 image001 image001 image001 image001 image001 image001 image001 image001 image001 image001

Planets Sun Sun Sun
Статистика раздачи
Автор: Nickolas3434 | Размер: 2.42 ГБ | Добавлен: 18 сен 2015
Раздают: 161    Качают: 8
Скачать торрент
Скачать торрент
Описание торрента

СообщениеДобавлено: 18 сен 2015 


Информация о фильме
Название: Дом, который построил Свифт
Год выхода: 1982
Жанр: Фэнтези, трагикомедия, экранизация
Режиссер: Марк Захаров
В ролях: Олег Янковский, Александр Абдулов, Владимир Белоусов, Евгений Леонов, Марина Игнатова, Александра Захарова, Александр Сирин, Александр Збруев, Николай Караченцов, Татьяна Рудина, Виктор Проскурин, Юрий Астафьев, Вилор Кузнецов, Всеволод Ларионов, Игорь Фокин, Семён Фарада, Юрий Колычев, Валерий Беляков, Альберт Буров (Беренштейн), Николай Гагарин, Вячеслав Горбунчиков, Евгений Марков, Владимир Мышкин, Александр Трофимов, Вадим Урюпин, Олег Фёдоров, Геннадий Матвеев, Татьяна Щанкина, Александр Сажин, Георгий Всеволодов, Владимир Фёдоров
О фильме: Вымышленные персонажи из произведений Свифта - йеху, лилипуты, гуингнмы - населяют дом, который построил Свифт. Реальность здесь тесно переплетается с вымыслом, предметы из одного превращаются в другой, и уже невозможно понять, где настоящие события, а где мистификация или фантазия сатирика. Для лечения к Свифту присылают психиатра, доктора Симпсона. Именно ему предстоит вместе со зрителями пережить все удивительные события в этом доме для того, чтобы понять и постичь одинокого гениального художника. Рассказывая невероятные и правдивые истории, придумывая мистификациии розыгрыши, хозяин дома пытается раскрыть людям тайный смысл бытия и, может быть, преобразить их жизнь...
Страна: СССР
Продолжительность: 2 х ~ 01:08:00
Перевод: не требуется
Файл
Кодек: x264
Качество: DVDRip-AVC
Видео: MPEG-4 AVC, 2269 Кбит/с, 720x576@768x576
Звук: AC3, 1 ch, 224 Кбит/с

raw [info]: 720x576p 16:15 @ 25/1 fps (cfr)
x264 [info]: using SAR=16/15
x264 [info]: using cpu capabilities: MMX2 SSE2Fast SSSE3 SSE4.2 AVX
x264 [info]: profile High, level 4.1
x264 [info]: frame I:45 Avg QP:17.62 size: 72590
x264 [info]: frame P:547 Avg QP:21.38 size: 28496
x264 [info]: frame B:1923 Avg QP:22.29 size: 8111
==========================================================================================================
Общее
Уникальный идентификатор : 170882642484597164955492847951540561398 (0x808ECCC097611D2A8C6A1D656D66A5F6)
Полное имя : R:МОИ РИПЫДом, который построил Свифт_1982-DVDRip-AVCСвифт-1.mkv
Формат : Matroska
Версия формата : Version 2
Размер файла : 1,30 Гбайт
Продолжительность : 1 ч. 13 м.
Общий поток : 2544 Кбит/сек
Дата кодирования : UTC 2015-09-17 17:30:34
Программа кодирования : mkvmerge v5.8.0 ('No Sleep / Pillow') built on Sep 2 2012 15:37:04
Библиотека кодирования : libebml v1.2.3 + libmatroska v1.3.0
Видео
Идентификатор : 1
Формат : AVC
Формат/Информация : Advanced Video Codec
Профиль формата : High@L4.1
Параметр CABAC формата : Да
Параметр ReFrames формата : 15 кадров
Идентификатор кодека : V_MPEG4/ISO/AVC
Продолжительность : 1 ч. 13 м.
Битрейт : 2269 Кбит/сек
Ширина : 720 пикселей
Высота : 576 пикселей
Соотношение сторон : 4:3
Режим частоты кадров : Постоянный
Частота кадров : 25,000 кадров/сек
Стандарт вещания : PAL
Цветовое пространство : YUV
Субдискретизация насыщенности : 4:2:0
Битовая глубина : 8 бит
Тип развёртки : Прогрессивная
Бит/(Пиксели*Кадры) : 0.219
Размер потока : 1,16 Гбайт (89%)
Библиотека кодирования : x264 core 146 r2538 121396c
Настройки программы : cabac=1 / ref=15 / deblock=1:-2:-2 / analyse=0x3:0x133 / me=umh / subme=10 / psy=1 / psy_rd=1.05:0.10 / mixed_ref=1 / me_range=32 / chroma_me=1 / trellis=2 / 8x8dct=1 / cqm=0 / deadzone=21,11 / fast_pskip=1 / chroma_qp_offset=-3 / threads=12 / lookahead_threads=2 / sliced_threads=0 / nr=0 / decimate=1 / interlaced=0 / bluray_compat=0 / constrained_intra=0 / bframes=9 / b_pyramid=2 / b_adapt=2 / b_bias=0 / direct=1 / weightb=1 / open_gop=0 / weightp=2 / keyint=250 / keyint_min=25 / scenecut=40 / intra_refresh=0 / rc=crf / mbtree=0 / crf=19.5 / qcomp=0.65 / qpmin=0 / qpmax=39 / qpstep=4 / ip_ratio=1.40 / pb_ratio=1.30 / aq=1:1.00
Язык : English
Default : Да
Forced : Нет
Цветовой диапазон : Limited
Основные цвета : BT.601 PAL
Характеристики трансфера : BT.470 System B, BT.470 System G
Коэффициенты матрицы : BT.601
Аудио
Идентификатор : 2
Формат : AC-3
Формат/Информация : Audio Coding 3
Расширение режима : CM (complete main)
Параметр Endianness формата : Big
Идентификатор кодека : A_AC3
Продолжительность : 1 ч. 13 м.
Вид битрейта : Постоянный
Битрейт : 224 Кбит/сек
Каналы : 1 канал
Расположение каналов : Front: C
Частота : 48,0 КГц
Битовая глубина : 16 бит
Метод сжатия : С потерями
Размер потока : 117 Мбайт (9%)
Язык : Russian
Default : Да
Forced : Нет

Сравнение с исходником: http://screenshotcomparison.com/compari ... /picture:4
Релиз от:
Автор релиза:



   Похожие торренты   Торрент   Размер 
В этой теме нет новых непрочитанных сообщений. Дом, который построил Свифт (1982) DVDRip

144 | 3

2.19 ГБ

В этой теме нет новых непрочитанных сообщений. Дом, который построил Свифт (1982) SATRip

10 | 4

1.37 ГБ

В этой теме нет новых непрочитанных сообщений. Григорий Горин - Дом, который построил Свифт (1980) (2012) MP3

58 | 3

117.95 МБ

В этой теме нет новых непрочитанных сообщений. Дом, который построил Джек (1976) DVDRip-AVC

43 | 2

108.19 МБ

В этой теме нет новых непрочитанных сообщений. Чародеи (1982) DVDRip-AVC от ExKinoRay

1177 | 46

3.26 ГБ

В этой теме нет новых непрочитанных сообщений. Инспектор ГАИ (1982) DVDRip-AVC от ExKinoRay

129 | 29

1.7 ГБ

В этой теме нет новых непрочитанных сообщений. Случай в квадрате 36-80 (1982) DVDRip-AVC от ExKinoRay

197 | 15

1.06 ГБ




Вы не можете начинать темы
Вы не можете отвечать на сообщения
Вы не можете редактировать свои сообщения
Вы не можете удалять свои сообщения
Вы не можете добавлять вложения

Перейти:  
Для Мосгорсуда, Роскомнадзора и рекламодателей: mosgorsud-torrent[собачка]yandex.ru
 Вход
ppkBB3cker v.2 © 2008-2014 @ PPK
[ Time : 0.042s | 15 Queries | GZIP : Off ]

cron