img image001 image001 image001 image001 image001 image001 image001 image001 image001 image001 image001 image001 image001 image001 image001

Planets Sun Sun Sun
Статистика раздачи
Автор: Nickolas3434 | Размер: 2 ГБ | Добавлен: 19 сен 2015
Раздают: 122    Качают: 10
Скачать торрент
Скачать торрент
Описание торрента

СообщениеДобавлено: 19 сен 2015 


Информация о фильме
Название: Сыщик
Год выхода: 1979
Жанр: Детектив
Режиссер: Владимир Фокин
В ролях: Андрей Ташков, Борис Химичев, Игорь Кваша, Николай Скоробогатов, Ирина Аугшкап, Юрий Гусев, Лариса Лужина, Валерий Беляков, Александр Пашутин, Леонид Ярмольник, Алексей Зотов, Николай Тырин, Олег Чайка, Владимир Прохоров, Вадим Захарченко, Владимир Жариков
О фильме: Молодой, скромный парень по фамилии Кулик, отслужил армию, хотел поступить на юридический, но не добрал баллов и пошел работать в милицию, где ему поручали самые пустяковые дела. Полковник из управления и непосредственный начальник проводили ответственную и сложную операцию по обезвреживанию банды, получавшей с приисков ворованное золото. За недостатком людей Кулика назначают в помощники к опытному оперативнику. Он должен проследить за курьером и найти логово банды во главе с умным и коварным рецидивистом по кличке Паленый.
Страна: СССР
Продолжительность: 02:08:32
Перевод: не требуется
Файл
Кодек: x264
Качество: DVDRip-AVC
Видео: MPEG-4 AVC, 2000 Кбит/с, 698x400@784х400
Звук: AC3, 2 ch, 224 Кбит/с

Общее
Уникальный идентификатор : 238550064287174311904079360823895216335 (0xB377123A773CFA7CA8E338BFC8DB50CF)
Полное имя : D:Сыщик_1979-DVDRip-AVC.mkv
Формат : Matroska
Версия формата : Version 2
Размер файла : 2,00 Гбайт
Продолжительность : 2 ч. 8 м.
Общий поток : 2226 Кбит/сек
Дата кодирования : UTC 2015-09-18 06:57:33
Программа кодирования : mkvmerge v5.8.0 ('No Sleep / Pillow') built on Sep 2 2012 15:37:04
Библиотека кодирования : libebml v1.2.3 + libmatroska v1.3.0
Видео
Идентификатор : 1
Формат : AVC
Формат/Информация : Advanced Video Codec
Профиль формата : High@L4.1
Параметр CABAC формата : Да
Параметр ReFrames формата : 14 кадров
Идентификатор кодека : V_MPEG4/ISO/AVC
Продолжительность : 2 ч. 8 м.
Битрейт : 2000 Кбит/сек
Ширина : 698 пикселей
Высота : 400 пикселей
Соотношение сторон : 1,960
Соотношение сторон в оригинале : 1,962
Режим частоты кадров : Постоянный
Частота кадров : 25,000 кадров/сек
Цветовое пространство : YUV
Субдискретизация насыщенности : 4:2:0
Битовая глубина : 8 бит
Тип развёртки : Прогрессивная
Бит/(Пиксели*Кадры) : 0.287
Размер потока : 1,76 Гбайт (88%)
Библиотека кодирования : x264 core 146 r2538 121396c
Настройки программы : cabac=1 / ref=14 / deblock=1:-2:-2 / analyse=0x3:0x133 / me=umh / subme=10 / psy=1 / psy_rd=1.05:0.05 / mixed_ref=1 / me_range=32 / chroma_me=1 / trellis=2 / 8x8dct=1 / cqm=0 / deadzone=21,11 / fast_pskip=0 / chroma_qp_offset=-3 / threads=12 / lookahead_threads=3 / sliced_threads=0 / nr=0 / decimate=0 / interlaced=0 / bluray_compat=0 / constrained_intra=0 / bframes=11 / b_pyramid=2 / b_adapt=2 / b_bias=0 / direct=3 / weightb=1 / open_gop=0 / weightp=2 / keyint=250 / keyint_min=25 / scenecut=40 / intra_refresh=0 / rc=2pass / mbtree=0 / bitrate=2000 / ratetol=1.0 / qcomp=0.65 / qpmin=0 / qpmax=39 / qpstep=4 / cplxblur=20.0 / qblur=0.5 / ip_ratio=1.40 / pb_ratio=1.30 / aq=1:1.00
Язык : English
Default : Да
Forced : Нет
Цветовой диапазон : Limited
Основные цвета : BT.601 PAL
Характеристики трансфера : BT.470 System B, BT.470 System G
Коэффициенты матрицы : BT.601
Аудио
Идентификатор : 2
Формат : AC-3
Формат/Информация : Audio Coding 3
Расширение режима : CM (complete main)
Параметр Endianness формата : Big
Идентификатор кодека : A_AC3
Продолжительность : 2 ч. 8 м.
Вид битрейта : Постоянный
Битрейт : 224 Кбит/сек
Каналы : 2 канала
Расположение каналов : Front: L R
Частота : 48,0 КГц
Битовая глубина : 16 бит
Метод сжатия : С потерями
Размер потока : 206 Мбайт (10%)
Язык : Russian
Default : Да
Forced : Нет

Релиз от:
Автор релиза:



   Похожие торренты   Торрент   Размер 
В этой теме нет новых непрочитанных сообщений. Сыщик (1979) DVDRip

662 | 12

744.9 МБ

В этой теме нет новых непрочитанных сообщений. Сыщик (1979) DVDRip от Киномагия

13 | 3

1.61 ГБ

В этой теме нет новых непрочитанных сообщений. Сыщик (1979) DVDRip от MediaClub

161 | 25

1.45 ГБ

В этой теме нет новых непрочитанных сообщений. Сыщик (1979) DVDRip от MediaClub

21 | 79

2.17 ГБ

В этой теме нет новых непрочитанных сообщений. Сыщик (1979) DVB

102 | 6

2.5 ГБ

В этой теме нет новых непрочитанных сообщений. Сыщик (1979) DVD9

10 | 6

6.33 ГБ

В этой теме нет новых непрочитанных сообщений. Ледников / Сыщик вне закона [01-16 из 16] (2013) WEB-DLRip-AVC от ExKinoRay

76 | 69

8.76 ГБ




Вы не можете начинать темы
Вы не можете отвечать на сообщения
Вы не можете редактировать свои сообщения
Вы не можете удалять свои сообщения
Вы не можете добавлять вложения

Перейти:  
Для Мосгорсуда, Роскомнадзора и рекламодателей: mosgorsud-torrent[собачка]yandex.ru
 Вход
ppkBB3cker v.2 © 2008-2014 @ PPK
[ Time : 1.780s | 14 Queries | GZIP : Off ]

Торрент трекер RUTOR.IN, Не можете зайти на rutor.org? Какой новый адрес рутор? Какое зеркало рутор? Не работает rutor.org и зеркала? Тогда наш торрент специально для вас. Rutor.in неофициальное зеркало rutor. В случае если у Вас заблокирован rutor или вдруг Вы не можете на него зайти, то Вы без труда сможете скачать бесплатно и без рекламы последние новинки кино, игр, сериалов и прочего у нас, на Rutor.in. Не нужно использовать прокси, чтобы зайти на рутор, достаточно воспользоваться нашим ресурсом. Все новые фильмы, игры, сериалы, книги и музыка за 2013 и 2014 годы через торрент бесплатно. Скачивайте фильмы в хорошем качестве, игры для пк, xbox, playstation без регистрации. У нас вы найдете новые Зарубежные сериалы и Русские сериалы 2013, 2014, 2015 годов. Оставайтесь с нами, качайте любимые фильмы, игры, сериалы, книги и музыку.