img image001 image001 image001 image001 image001 image001 image001 image001 image001 image001 image001 image001 image001 image001 image001

Planets Sun Sun Sun
Статистика раздачи
Автор: Nickolas3434 | Размер: 1.46 ГБ | Добавлен: 18 сен 2015
Раздают: 5    Качают: 7
Скачать торрент
Скачать торрент
Описание торрента

СообщениеДобавлено: 18 сен 2015 

Страна: СССР
Производство: Москинокомбинат
Жанр: драма, шпионский фильм
Год выпуска: 1950
Продолжительность: 01:36:53
Перевод: Не требуется
Cубтитры: нет
Оригинальная аудиодорожка: русский
Режиссер: Михаил Калатозов
В ролях:
Людмила Скопина, Павел Кадочников, Владимир Дружников, Борис Ситко, Всеволод Аксёнов, Луиза Кошукова, Людмила Врублевская, Иван Пельтцер, Илья Судаков, Софья Пилявская, Александр Вертинский, Максим Штраух, Владимир Марута, Олег Жаков, Валентина Серова, Ростислав Плятт, Иван Бобров...
Полный список актёров
Описание:
По одноименной пьесе Н.Вирты.
В одной из стран Восточной Европы зреет антидемократический заговор: по наущению западного посла организуется покушение на заместителя премьер-министра республики, коммунистку Ганну Лихта. На помощь коммунистам приходит Советский Союз - и вооруженные отряды рабочик арестовывают заговорщиков.





Источник: DVB
Качество видео: SATRip
Формат видео: AVI
Видео: 672x496 (4:3), 25 fps, XviD ~ 1956 kbps avg, 0.235 bit/pixel
Аудио: 48 kHz, Dolby Digital AC3 2.0, 192 kbps
Раздача от:
Общее
Полное имя : Zagovor.obrechennyh.1950.SATRip_[New-team]_by_AVP_Studio.avi
Формат : AVI
Формат/Информация : Audio Video Interleave
Размер файла : 1,46 Гбайт
Продолжительность : 1 ч. 36 м.
Общий поток : 2157 Кбит/сек
Программа кодирования : VirtualDubMod 1.5.10.3 | www.virtualdub-fr.org || (build 2550/release)
Библиотека кодирования : VirtualDubMod build 2550/release
Видео
Идентификатор : 0
Формат : MPEG-4 Visual
Профиль формата : Advanced Simple@L5
Параметр BVOP формата : 1
Параметр QPel формата : Нет
Параметр GMC формата : Без точки перехода
Параметр матрицы формата : Выборочная
Идентификатор кодека : XVID
Идентификатор кодека/Подсказка : XviD
Продолжительность : 1 ч. 36 м.
Битрейт : 1956 Кбит/сек
Ширина : 672 пикселя
Высота : 496 пикселей
Соотношение сторон : 4:3
Частота кадров : 25,000 кадров/сек
Цветовое пространство : YUV
Субдискретизация насыщенности : 4:2:0
Битовая глубина : 8 бит
Тип развёртки : Прогрессивная
Метод сжатия : С потерями
Бит/(Пиксели*Кадры) : 0.235
Размер потока : 1,32 Гбайт (91%)
Библиотека кодирования : XviD 73
Аудио
Идентификатор : 1
Формат : AC-3
Формат/Информация : Audio Coding 3
Расширение режима : CM (complete main)
Параметр Endianness формата : Big
Идентификатор кодека : 2000
Продолжительность : 1 ч. 36 м.
Вид битрейта : Постоянный
Битрейт : 192 Кбит/сек
Каналы : 2 канала
Расположение каналов : Front: L R
Частота : 48,0 КГц
Метод сжатия : С потерями
Размер потока : 133 Мбайт (9%)
Выравнивание : Разделение по промежуткам
Продолжительность промежутка : 40 мс. (1,00 видеокадр)
Время предзагрузки промежутка : 500 мс





   Похожие торренты   Торрент   Размер 
В этой теме нет новых непрочитанных сообщений. Заговор обреченных (1950) SATRip-AVC от New-Team

9 | 4

1.46 ГБ

В этой теме нет новых непрочитанных сообщений. Заговор обреченных (1950) SATRip от New-Team

4 | 3

745.26 МБ

В этой теме нет новых непрочитанных сообщений. Заговор обреченных (1950) DVDRip-AVC

16 | 14

1.98 ГБ

В этой теме нет новых непрочитанных сообщений. Жуковский (1950) SATRip-AVC от New-Team

30 | 2

1.09 ГБ

В этой теме нет новых непрочитанных сообщений. Жуковский (1950) SATRip от New-Team

9 | 4

745.36 МБ

В этой теме нет новых непрочитанных сообщений. Жуковский (1950) SATRip от New-Team

17 | 3

1.09 ГБ

В этой теме нет новых непрочитанных сообщений. А у нас была тишина... (1950) SATRip-AVC от New-Team

15 | 1

1.09 ГБ




Вы не можете начинать темы
Вы не можете отвечать на сообщения
Вы не можете редактировать свои сообщения
Вы не можете удалять свои сообщения
Вы не можете добавлять вложения

Перейти:  
Для Мосгорсуда, Роскомнадзора и рекламодателей: mosgorsud-torrent[собачка]yandex.ru
 Вход
ppkBB3cker v.2 © 2008-2014 @ PPK
[ Time : 0.050s | 16 Queries | GZIP : Off ]

cron