img image001 image001 image001 image001 image001 image001 image001 image001 image001 image001 image001 image001 image001 image001 image001

Planets Sun Sun Sun
Статистика раздачи
Автор: Nickolas3434 | Размер: 745.26 МБ | Добавлен: 18 сен 2015
Раздают: 4    Качают: 1
Скачать торрент
Скачать торрент
Описание торрента

СообщениеДобавлено: 18 сен 2015 

Страна: СССР
Производство: Москинокомбинат
Жанр: драма, шпионский фильм
Год выпуска: 1950
Продолжительность: 01:36:53
Перевод: Не требуется
Cубтитры: нет
Оригинальная аудиодорожка: русский
Режиссер: Михаил Калатозов
В ролях:
Людмила Скопина, Павел Кадочников, Владимир Дружников, Борис Ситко, Всеволод Аксёнов, Луиза Кошукова, Людмила Врублевская, Иван Пельтцер, Илья Судаков, Софья Пилявская, Александр Вертинский, Максим Штраух, Владимир Марута, Олег Жаков, Валентина Серова, Ростислав Плятт, Иван Бобров...
Полный список актёров
Описание:
По одноименной пьесе Н.Вирты.
В одной из стран Восточной Европы зреет антидемократический заговор: по наущению западного посла организуется покушение на заместителя премьер-министра республики, коммунистку Ганну Лихта. На помощь коммунистам приходит Советский Союз - и вооруженные отряды рабочик арестовывают заговорщиков.





Источник: DVB
Качество видео: SATRip
Формат видео: AVI
Видео: 576x432 (4:3), 25 fps, XviD ~ 938 kbps avg, 0.151 bit/pixel
Аудио: 48 kHz, MP3 2.0, 128 kbps
Раздача от:
Общее
Полное имя : Zagovor.obrechennyh.1950.SATRip-745_[New-team]_by_AVP_Studio.avi
Формат : AVI
Формат/Информация : Audio Video Interleave
Размер файла : 745 Мбайт
Продолжительность : 1 ч. 36 м.
Общий поток : 1076 Кбит/сек
Программа кодирования : VirtualDubMod 1.5.10.3 | www.virtualdub-fr.org || (build 2550/release)
Библиотека кодирования : VirtualDubMod build 2550/release
Видео
Идентификатор : 0
Формат : MPEG-4 Visual
Профиль формата : Advanced Simple@L5
Параметр BVOP формата : 1
Параметр QPel формата : Нет
Параметр GMC формата : Без точки перехода
Параметр матрицы формата : Выборочная
Идентификатор кодека : XVID
Идентификатор кодека/Подсказка : XviD
Продолжительность : 1 ч. 36 м.
Битрейт : 938 Кбит/сек
Ширина : 576 пикселей
Высота : 432 пикселя
Соотношение сторон : 4:3
Частота кадров : 25,000 кадров/сек
Цветовое пространство : YUV
Субдискретизация насыщенности : 4:2:0
Битовая глубина : 8 бит
Тип развёртки : Прогрессивная
Метод сжатия : С потерями
Бит/(Пиксели*Кадры) : 0.151
Размер потока : 650 Мбайт (87%)
Библиотека кодирования : XviD 73
Аудио
Идентификатор : 1
Формат : MPEG Audio
Версия формата : Version 1
Профиль формата : Layer 3
Идентификатор кодека : 55
Идентификатор кодека/Подсказка : MP3
Продолжительность : 1 ч. 36 м.
Вид битрейта : Постоянный
Битрейт : 128 Кбит/сек
Каналы : 2 канала
Частота : 48,0 КГц
Метод сжатия : С потерями
Размер потока : 88,7 Мбайт (12%)
Выравнивание : Соединение по промежуткам
Продолжительность промежутка : 40 мс. (1,00 видеокадр)
Время предзагрузки промежутка : 504 мс.
Библиотека кодирования : LAME3.99r
Настройки программы : -m s -V 4 -q 2 -lowpass 17 -b 128





   Похожие торренты   Торрент   Размер 
В этой теме нет новых непрочитанных сообщений. Заговор обреченных (1950) SATRip от New-Team

5 | 7

1.46 ГБ

В этой теме нет новых непрочитанных сообщений. Заговор обреченных (1950) SATRip-AVC от New-Team

9 | 5

1.46 ГБ

В этой теме нет новых непрочитанных сообщений. Заговор обреченных (1950) DVDRip-AVC

16 | 14

1.98 ГБ

В этой теме нет новых непрочитанных сообщений. Жуковский (1950) SATRip от New-Team

20 | 5

1.09 ГБ

В этой теме нет новых непрочитанных сообщений. Жуковский (1950) SATRip от New-Team

14 | 5

745.36 МБ

В этой теме нет новых непрочитанных сообщений. Жуковский (1950) SATRip-AVC от New-Team

26 | 2

1.09 ГБ

В этой теме нет новых непрочитанных сообщений. А у нас была тишина... (1950) SATRip-AVC от New-Team

15 | 1

1.09 ГБ




Вы не можете начинать темы
Вы не можете отвечать на сообщения
Вы не можете редактировать свои сообщения
Вы не можете удалять свои сообщения
Вы не можете добавлять вложения

Перейти:  
Для Мосгорсуда, Роскомнадзора и рекламодателей: mosgorsud-torrent[собачка]yandex.ru
 Вход
ppkBB3cker v.2 © 2008-2014 @ PPK
[ Time : 0.052s | 18 Queries | GZIP : Off ]

Торрент трекер RUTOR.IN, Не можете зайти на rutor.org? Какой новый адрес рутор? Какое зеркало рутор? Не работает rutor.org и зеркала? Тогда наш торрент специально для вас. Rutor.in неофициальное зеркало rutor. В случае если у Вас заблокирован rutor или вдруг Вы не можете на него зайти, то Вы без труда сможете скачать бесплатно и без рекламы последние новинки кино, игр, сериалов и прочего у нас, на Rutor.in. Не нужно использовать прокси, чтобы зайти на рутор, достаточно воспользоваться нашим ресурсом. Все новые фильмы, игры, сериалы, книги и музыка за 2013 и 2014 годы через торрент бесплатно. Скачивайте фильмы в хорошем качестве, игры для пк, xbox, playstation без регистрации. У нас вы найдете новые Зарубежные сериалы и Русские сериалы 2013, 2014, 2015 годов. Оставайтесь с нами, качайте любимые фильмы, игры, сериалы, книги и музыку.
cron