img image001 image001 image001 image001 image001 image001 image001 image001 image001 image001 image001 image001 image001 image001 image001 image001

Planets Sun Sun Sun
Статистика раздачи
Автор: Nickolas3434 | Размер: 1.58 ГБ | Добавлен: 18 сен 2015
Раздают: 296    Качают: 16
Скачать торрент
Скачать торрент
Описание торрента

СообщениеДобавлено: 18 сен 2015 

Информация о фильме
Название: Любимая женщина механика Гаврилова
Год выхода: 1982
Жанр: мелодрама, комедия
Режиссер: Петр Тодоровский
В ролях: Людмила Гурченко, Сергей Шакуров, Евгений Евстигнеев, Анатолий Васильев, Михаил Светин, Всеволод Шиловский, Наталья Назарова, Людмила Аринина, Света Пономарева, Станислав Соколов, Александр Голобородко, Павел Винник, Яков Друзь
О фильме: Этa иcтopия нaчaлacь yтpoм вoзлe ЗAГCa, кyдa дoлжeн был явитьcя на собственную свадьбу cyдoвoй мexaник Гaвpилoв. Но oн нe пришел. Сорокалетняя, чертовски пpивлeкaтeльнaя жeнщинa Pитa, мaть cимпaтичнoй дoчки-cтapшeклaccницы Taни, coбpaлacь зa нeгo зaмyж. Bлюблённaя Pитa пpoждaлa eгo вecь дeнь, cтpaдaя и нaдeяcь, нe oтxoдя дaлeкo oт зaвeтныx двepeй. Зpя ждaлa oнa eгo c гocтями вoзлe ЗAГCa и в pecтopaнe, иcкaлa нa cyднe, cнoвa ждaлa y ЗAГCa. A дaльшe... Дaльшe - иcтopия любви. Иcтopия любви вceгдa yвлeкaeт, тeм бoлee, кoгдa oнa paccкaзaнa cтoль тaлaнтливo, нeopдинapнo и к тoмy жe c юмopoм. Но Гaвpилoв нe был бы Гaвpилoвым, ecли бы зa пoлчaca дo cвaдьбы нe вcтyпилcя зa нeзнaкoмyю жeнщинy, пocлe чeгo двoe "лoвeлacoв" oкaзaлиcь в бoльницe, a oн - в милиции. Дeйcтвиe кapтины oxвaтывaeт oдин дeнь из жизни гepoини, нacтpoeниe кoтopoй кoлeблeтcя мeждy oчaяниeм и нaдeждoй. "Изюминка" же фильма - явление механика Гаврилова народу.
Страна: СССР
Продолжительность: 1:14:53
Перевод: не требуется
Файл
Кодек: x264
Качество: DVDRip-AVC
Видео: MPEG-4 AVC, 2350 Кбит/с, 720x440@1024x440
Звук: AC3, 6 ch, 448 Кбит/с, AC3, 1 ch, 224 Кбит/с

Общее
Уникальный идентификатор : 205265600451716266719821763661238720029 (0x9A6CB7762113B219B1917DF9A591561D)
Полное имя : D:Любимая женщина механика Гаврилова_1982-DVDRip-AVC.mkv
Формат : Matroska
Версия формата : Version 2
Размер файла : 1,58 Гбайт
Продолжительность : 1 ч. 14 м.
Общий поток : 3024 Кбит/сек
Дата кодирования : UTC 2015-09-18 08:31:38
Программа кодирования : mkvmerge v5.8.0 ('No Sleep / Pillow') built on Sep 2 2012 15:37:04
Библиотека кодирования : libebml v1.2.3 + libmatroska v1.3.0
Видео
Идентификатор : 1
Формат : AVC
Формат/Информация : Advanced Video Codec
Профиль формата : High@L4.1
Параметр CABAC формата : Да
Параметр ReFrames формата : 14 кадров
Идентификатор кодека : V_MPEG4/ISO/AVC
Продолжительность : 1 ч. 14 м.
Битрейт : 2350 Кбит/сек
Ширина : 720 пикселей
Высота : 440 пикселей
Соотношение сторон : 2,35:1
Режим частоты кадров : Постоянный
Частота кадров : 25,000 кадров/сек
Цветовое пространство : YUV
Субдискретизация насыщенности : 4:2:0
Битовая глубина : 8 бит
Тип развёртки : Прогрессивная
Бит/(Пиксели*Кадры) : 0.297
Размер потока : 1,20 Гбайт (76%)
Библиотека кодирования : x264 core 148 r2579 73ae2d1
Настройки программы : cabac=1 / ref=14 / deblock=1:-2:-2 / analyse=0x3:0x133 / me=umh / subme=10 / psy=1 / psy_rd=1.05:0.17 / mixed_ref=1 / me_range=32 / chroma_me=1 / trellis=2 / 8x8dct=1 / cqm=0 / deadzone=21,11 / fast_pskip=0 / chroma_qp_offset=-3 / threads=12 / lookahead_threads=2 / sliced_threads=0 / nr=0 / decimate=0 / interlaced=0 / bluray_compat=0 / constrained_intra=0 / bframes=7 / b_pyramid=2 / b_adapt=2 / b_bias=0 / direct=3 / weightb=1 / open_gop=0 / weightp=2 / keyint=250 / keyint_min=25 / scenecut=40 / intra_refresh=0 / rc=2pass / mbtree=0 / bitrate=2350 / ratetol=1.0 / qcomp=0.60 / qpmin=0 / qpmax=39 / qpstep=4 / cplxblur=20.0 / qblur=0.5 / ip_ratio=1.40 / pb_ratio=1.30 / aq=1:1.00
Язык : English
Default : Да
Forced : Нет
Цветовой диапазон : Limited
Основные цвета : BT.601 PAL
Характеристики трансфера : BT.470 System B, BT.470 System G
Коэффициенты матрицы : BT.601
Аудио #1
Идентификатор : 2
Формат : AC-3
Формат/Информация : Audio Coding 3
Расширение режима : CM (complete main)
Параметр Endianness формата : Big
Идентификатор кодека : A_AC3
Продолжительность : 1 ч. 14 м.
Вид битрейта : Постоянный
Битрейт : 448 Кбит/сек
Каналы : 6 каналов
Расположение каналов : Front: L C R, Side: L R, LFE
Частота : 48,0 КГц
Битовая глубина : 16 бит
Метод сжатия : С потерями
Размер потока : 240 Мбайт (15%)
Язык : Russian
Default : Да
Forced : Нет
Аудио #2
Идентификатор : 3
Формат : AC-3
Формат/Информация : Audio Coding 3
Расширение режима : CM (complete main)
Параметр Endianness формата : Big
Идентификатор кодека : A_AC3
Продолжительность : 1 ч. 14 м.
Вид битрейта : Постоянный
Битрейт : 224 Кбит/сек
Каналы : 1 канал
Расположение каналов : Front: C
Частота : 48,0 КГц
Битовая глубина : 16 бит
Метод сжатия : С потерями
Размер потока : 120 Мбайт (7%)
Язык : Russian
Default : Нет
Forced : Нет

Релиз от:
Автор релиза:



   Похожие торренты   Торрент   Размер 
В этой теме нет новых непрочитанных сообщений. Любимая женщина механика Гаврилова (1982) DVDRip

17 | 15

1.37 ГБ

В этой теме нет новых непрочитанных сообщений. Механика счастья (1982) DVDRip от Кинорадиомагия

12 | 4

1.37 ГБ

В этой теме нет новых непрочитанных сообщений. Виктор Гурченко - Любимая женщина (2017) MP3

9 | 2

94.27 МБ

В этой теме нет новых непрочитанных сообщений. Сборник - Отогрей мне душу, любимая женщина (2014) MP3

285 | 52

719.98 МБ

В этой теме нет новых непрочитанных сообщений. Сборник - Женщина любимая. Лирика шансона (2013) MP3

292 | 5

1.68 ГБ

В этой теме нет новых непрочитанных сообщений. Сборник - Любимая женщина. Душевный шансон (2016) MP3

1410 | 171

688.9 МБ

В этой теме нет новых непрочитанных сообщений. Сборник - Женщина любимая. Лирика шансона (2016) MP3

275 | 18

1.71 ГБ




Вы не можете начинать темы
Вы не можете отвечать на сообщения
Вы не можете редактировать свои сообщения
Вы не можете удалять свои сообщения
Вы не можете добавлять вложения

Перейти:  
 Вход
ppkBB3cker v.2 © 2008-2014 @ PPK
[ Time : 0.038s | 15 Queries | GZIP : Off ]

cron