img image001 image001 image001 image001 image001 image001 image001 image001 image001 image001 image001 image001 image001 image001 image001

Planets Sun Sun Sun
Статистика раздачи
Автор: Nickolas3434 | Размер: 745.63 МБ | Добавлен: 20 сен 2015
Раздают: 265    Качают: 14
Скачать торрент
Скачать торрент
Описание торрента

СообщениеДобавлено: 20 сен 2015 


Информация о фильме
Название: Мой грех
Год выхода: 2010
Жанр: Мелодрама
Режиссер: Сергей Виноградов
В ролях: Наталия Антонова, Олег Штефанко, Мария Климова, Сергей Серов, Анна Гуляренко, Наталия Винтилова, Владимир Скворцов, Кирилл Продолятченко, Сергей, Походаев, Александр Андриенко
О фильме:
История молодой женщины, которая много лет назад, в ранней юности, совершила странный поступок — отказалась от собственного ребёнка ради благополучия и карьеры. Спустя двадцать лет, оказавшись на грани жизни и смерти, она осознаёт всю тяжесть своей вины и твёрдо решает найти своего сына. Она отправляется в город своего детства и, пройдя череду препятствий, испытаний, разочарований, она в конце концов находит не только своего ребёнка, но и свою любовь.

Страна: Россия
Студия: Мостелефильм
Продолжительность: 01:36:40
Перевод: Не требуется
Файл
Кодек: XviD
Качество: HDTVRip
Видео: 624x352 (1.77:1), 25 fps, XviD build 73 ~940 kbps avg, 0.17 bit/pixel
Звук: 48 kHz, MPEG Layer 3, 2 ch, ~128.00 kbps avg
Субтитры: Отсутствуют
Семпл
General
Complete name : D:Изготовление риповMoj.Greh.2010.HDTVRip.Shkiper.avi
Format : AVI
Format/Info : Audio Video Interleave
File size : 746 MiB
Duration : 1h 36mn
Overall bit rate : 1 078 Kbps
Writing application : VirtualDubMod 1.5.10.3 | www.virtualdub-fr.org || (build 2550/release)
Writing library : VirtualDubMod build 2550/release
Video
ID : 0
Format : MPEG-4 Visual
Format profile : Advanced Simple@L5
Format settings, BVOP : 1
Format settings, QPel : No
Format settings, GMC : No warppoints
Format settings, Matrix : Custom
Codec ID : XVID
Codec ID/Hint : XviD
Duration : 1h 36mn
Bit rate : 941 Kbps
Width : 624 pixels
Height : 352 pixels
Display aspect ratio : 16:9
Frame rate : 25.000 fps
Color space : YUV
Chroma subsampling : 4:2:0
Bit depth : 8 bits
Scan type : Progressive
Compression mode : Lossy
Bits/(Pixel*Frame) : 0.171
Stream size : 650 MiB (87%)
Writing library : XviD 73
Audio
ID : 1
Format : MPEG Audio
Format version : Version 1
Format profile : Layer 3
Mode : Joint stereo
Mode extension : MS Stereo
Codec ID : 55
Codec ID/Hint : MP3
Duration : 1h 36mn
Bit rate mode : Constant
Bit rate : 128 Kbps
Channel(s) : 2 channels
Sampling rate : 48.0 KHz
Compression mode : Lossy
Stream size : 88.5 MiB (12%)
Alignment : Aligned on interleaves
Interleave, duration : 40 ms (1.00 video frame)
Interleave, preload duratio : 504 ms
Writing library : LAME3.99r
Encoding settings : -m j -V 4 -q 2 -lowpass 17 -b 128

Релиз от:



   Похожие торренты   Торрент   Размер 
В этой теме нет новых непрочитанных сообщений. Мой грех (2010) HDTVRip-AVC от Files-x

110 | 8

1.37 ГБ

В этой теме нет новых непрочитанных сообщений. Мой грех (2010) HDTVRip от Files-x

174 | 10

1.37 ГБ

В этой теме нет новых непрочитанных сообщений. Мой грех (2010) HDTVRip 720p от MediaClub

54 | 7

2.43 ГБ

В этой теме нет новых непрочитанных сообщений. Несмертный грех / Грех, достойный прощения / Peccato veniale (1974) DVDRip | L1

150 | 65

1.36 ГБ

В этой теме нет новых непрочитанных сообщений. Фокусник (2010) HDTVRip от Шкипер

310 | 13

745.29 МБ

В этой теме нет новых непрочитанных сообщений. Жить (2010) HDTVRip от Шкипер

410 | 63

743.62 МБ

В этой теме нет новых непрочитанных сообщений. Фокусник 2 (2010) HDTVRip от Шкипер

196 | 19

745.73 МБ




Вы не можете начинать темы
Вы не можете отвечать на сообщения
Вы не можете редактировать свои сообщения
Вы не можете удалять свои сообщения
Вы не можете добавлять вложения

Перейти:  
Для Мосгорсуда, Роскомнадзора и рекламодателей: mosgorsud-torrent[собачка]yandex.ru
 Вход
ppkBB3cker v.2 © 2008-2014 @ PPK
[ Time : 0.020s | 14 Queries | GZIP : Off ]

Торрент трекер RUTOR.IN, Не можете зайти на rutor.org? Какой новый адрес рутор? Какое зеркало рутор? Не работает rutor.org и зеркала? Тогда наш торрент специально для вас. Rutor.in неофициальное зеркало rutor. В случае если у Вас заблокирован rutor или вдруг Вы не можете на него зайти, то Вы без труда сможете скачать бесплатно и без рекламы последние новинки кино, игр, сериалов и прочего у нас, на Rutor.in. Не нужно использовать прокси, чтобы зайти на рутор, достаточно воспользоваться нашим ресурсом. Все новые фильмы, игры, сериалы, книги и музыка за 2013 и 2014 годы через торрент бесплатно. Скачивайте фильмы в хорошем качестве, игры для пк, xbox, playstation без регистрации. У нас вы найдете новые Зарубежные сериалы и Русские сериалы 2013, 2014, 2015 годов. Оставайтесь с нами, качайте любимые фильмы, игры, сериалы, книги и музыку.