img image001 image001 image001 image001 image001 image001 image001 image001 image001 image001 image001 image001 image001 image001 image001

Planets Sun Sun Sun
Статистика раздачи
Автор: Nickolas3434 | Размер: 742.89 МБ | Добавлен: 21 сен 2015, 13:00
Раздают: 136    Качают: 15
Скачать торрент
Скачать торрент
Описание торрента

СообщениеДобавлено: 21 сен 2015, 13:00 


Информация о фильме
Название: Старики-разбойники
Год выхода: 1971
Жанр: Комедия, детектив
Режиссёр: Эльдар Рязанов
В ролях: Юрий Никулин, Евгений Евстигнеев, Ольга Аросева, Георгий Бурков, Андрей Миронов, Валентина Владимирова, Валентина Талызина, Юрий Белов, Роман Филиппов, Готлиб Ронинсон, Юрий Смирнов, Лев Дуров, Борис Рунге, Ирина Мурзаева, Нина Агапова, Виктор Байков, Александр Ширвиндт, Евгений Перов, Борис Владимиров, Георгий Куликов, Наталия Санько, Леонид Чубаров, Александр Январёв, Александра Данилова, Владимир Гуляев, Феликс Яворский, Эльдар Рязанов, Юрий Яковлев (текст от автора)
О фильме: Следователя прокуратуры Николая Сергеевича Мячикова, достигшего пенсионного возраста, пытаются насильно «уйти» с работы, так как на его место есть кандидат, присланный «сверху». Но Фёдор Фёдорович Федяев, начальник Мячикова, мотивирует это тем, что за последние два месяца тот не раскрыл ни одного преступления. В это же время добровольно собирается на заслуженный отдых друг Мячикова — инженер Валентин Петрович Воробьёв. Однако, на прощальном собрании, тронутый "дежурными" речами коллег, которые Воробьев принимает за чистую монету, Валентин Петрович решает остаться на работе. А, чтобы помочь и другу, предлагает совершить «преступление века». Мячиков раскроет его, и начальству ничего не останется, как оставить следователя на службе. Для начала будущие пенсионеры отправляются в музей...
Доп. информация: Исходник DVD5 - полная реставрация изображения и звука от "Крупный план"

Страна: СССР
Студия: Мосфильм
Продолжительность: 01:26:27
Перевод: Не требуется (оригинальный)
Файл
Формат: avi
Качество: DVDRip (DVD5)
Видео: XviD, 640х464, 25fps, 1064kbps
Аудио: MPEG Layer 3, 2ch, 48000Hz, 128kbps

General
Complete name : Stariki.Razboiniki.1971.O.DVDRip.700.MediaClub.CurHaJI.avi
Format : AVI
Format/Info : Audio Video Interleave
File size : 743 MiB
Duration : 1h 26mn
Overall bit rate : 1 201 Kbps
Movie name : Stariki.Razboiniki.1971.O.DVDRip.700.MediaClub.CurHaJI
Writing application : VirtualDubMod 1.5.10.3 | www.virtualdub-fr.org || (build 2550/release)
Writing library : VirtualDub build 35491/release
Video
ID : 0
Format : MPEG-4 Visual
Format profile : Advanced Simple@L5
Format settings, BVOP : 1
Format settings, QPel : No
Format settings, GMC : No warppoints
Format settings, Matrix : Custom
Codec ID : XVID
Codec ID/Hint : XviD
Duration : 1h 26mn
Bit rate : 1 064 Kbps
Width : 640 pixels
Height : 464 pixels
Display aspect ratio : 1.379
Frame rate : 25.000 fps
Color space : YUV
Chroma subsampling : 4:2:0
Bit depth : 8 bits
Scan type : Progressive
Compression mode : Lossy
Bits/(Pixel*Frame) : 0.143
Stream size : 658 MiB (89%)
Writing library : XviD 1.2.1 (UTC 2008-12-04)
Audio
ID : 1
Format : MPEG Audio
Format version : Version 1
Format profile : Layer 3
Codec ID : 55
Codec ID/Hint : MP3
Duration : 1h 26mn
Bit rate mode : Constant
Bit rate : 128 Kbps
Channel(s) : 2 channels
Sampling rate : 48.0 KHz
Compression mode : Lossy
Stream size : 79.1 MiB (11%)
Alignment : Aligned on interleaves
Interleave, duration : 40 ms (1.00 video frame)
Interleave, preload duration : 504 ms
Writing library : L3.99r
Encoding settings : -m s -V 4 -q 2 -lowpass 17 -b 128


Релиз от:



   Похожие торренты   Торрент   Размер 
В этой теме нет новых непрочитанных сообщений. Старики-разбойники (1971) DVDRip | Реставрация

58 | 16

1.37 ГБ

В этой теме нет новых непрочитанных сообщений. Старики-разбойники (1971) DVD5 | Реставрация

14 | 5

4.26 ГБ

В этой теме нет новых непрочитанных сообщений. Старики-разбойники (1971) DVDRip от Youtracker

18 | 9

744.18 МБ

В этой теме нет новых непрочитанных сообщений. Старики-разбойники (1971) DVDRip-AVC от ExKinoRay

267 | 17

1.94 ГБ

В этой теме нет новых непрочитанных сообщений. Старики-разбойники (1971) DVDRip-AVC от Youtracker

84 | 18

1.46 ГБ

В этой теме нет новых непрочитанных сообщений. Старики-разбойники (1971) DVDRip от Youtracker

35 | 11

1.46 ГБ

В этой теме нет новых непрочитанных сообщений. Старики-разбойники (1971) HDTVRip-AVC

29 | 9

1.45 ГБ




Вы не можете начинать темы
Вы не можете отвечать на сообщения
Вы не можете редактировать свои сообщения
Вы не можете удалять свои сообщения
Вы не можете добавлять вложения

Перейти:  
Для Мосгорсуда, Роскомнадзора и рекламодателей: mosgorsud-torrent[собачка]yandex.ru
Настройки
ppkBB3cker v.2 © 2008-2014 @ PPK
[ Time : 0.918s | 15 Queries | GZIP : Off ]
CGP [Extreme] output time : 0.00020s | 0 Queries | GZIP : Off

Торрент трекер RUTOR.IN, Не можете зайти на rutor.org? Какой новый адрес рутор? Какое зеркало рутор? Не работает rutor.org и зеркала? Тогда наш торрент специально для вас. Rutor.in неофициальное зеркало rutor. В случае если у Вас заблокирован rutor или вдруг Вы не можете на него зайти, то Вы без труда сможете скачать бесплатно и без рекламы последние новинки кино, игр, сериалов и прочего у нас, на Rutor.in. Не нужно использовать прокси, чтобы зайти на рутор, достаточно воспользоваться нашим ресурсом. Все новые фильмы, игры, сериалы, книги и музыка за 2013 и 2014 годы через торрент бесплатно. Скачивайте фильмы в хорошем качестве, игры для пк, xbox, playstation без регистрации. У нас вы найдете новые Зарубежные сериалы и Русские сериалы 2013, 2014, 2015 годов. Оставайтесь с нами, качайте любимые фильмы, игры, сериалы, книги и музыку.