img image001 image001 image001 image001 image001 image001 image001 image001 image001 image001 image001 image001 image001 image001 image001

Planets Sun Sun Sun
Статистика раздачи
Автор: Nickolas3434 | Размер: 1.46 ГБ | Добавлен: 22 сен 2015
Раздают: 11    Качают: 5
Скачать торрент
Скачать торрент
Описание торрента

СообщениеДобавлено: 22 сен 2015 

Страна: СССР
Производство: Киевская киностудия
Жанр: комедия
Год выпуска: 1950
Продолжительность: 01:21:18
Перевод: Не требуется
Cубтитры: нет
Оригинальная аудиодорожка: русский
Режиссер: Борис Барнет
В ролях:
Николай Крючков, Нина Архипова, Михаил Кузнецов, Марианна Стриженова, Виктор Добровольский, Константин Сорокин, Муза Крепкогорская, Евгений Максимов, Антон Дунайский, Михаил Высоцкий, Алла Казанская, Виктория Германова, Георгий Гумилевский, Татьяна Барышева, Зоя Толбузина...
Полный список актёров
Описание:
После войны Петр Середа возвращается в родной колхоз, где председатель - его друг и однополчанин Назар, - и становится главным бухгалтером хозяйства. В то время, как полеводческие бригады добиваются успеха и получают высокую оценку своих работ от правительства, Петр без устали доказывает "размякшему" от славы Назару, что животноводство "под ударом", а финансовые дела бесконтрольно запущены. Председатель осознает свои промахи и "берет себя в руки".





Источник: DVD5 R5
Качество видео: DVDRip
Формат видео: AVI
Видео: 688x512 (4:3), 25 fps, XviD ~ 2112 kbps avg, 0.240 bit/pixel
Аудио: 48 kHz, Dolby Digital AC3 5.1, 448 kbps
Раздача от:
Общее
Полное имя : Shhedroe.leto.1950.DVDRip_[New-team]_by_AVP_Studio.avi
Формат : AVI
Формат/Информация : Audio Video Interleave
Размер файла : 1,46 Гбайт
Продолжительность : 1 ч. 21 м.
Общий поток : 2570 Кбит/сек
Программа кодирования : VirtualDubMod 1.5.10.3 | www.virtualdub-fr.org || (build 2550/release)
Библиотека кодирования : VirtualDubMod build 2550/release
Видео
Идентификатор : 0
Формат : MPEG-4 Visual
Профиль формата : Advanced Simple@L5
Параметр BVOP формата : 1
Параметр QPel формата : Нет
Параметр GMC формата : Без точки перехода
Параметр матрицы формата : Выборочная
Идентификатор кодека : XVID
Идентификатор кодека/Подсказка : XviD
Продолжительность : 1 ч. 21 м.
Битрейт : 2112 Кбит/сек
Ширина : 688 пикселей
Высота : 512 пикселей
Соотношение сторон : 4:3
Частота кадров : 25,000 кадров/сек
Цветовое пространство : YUV
Субдискретизация насыщенности : 4:2:0
Битовая глубина : 8 бит
Тип развёртки : Прогрессивная
Метод сжатия : С потерями
Бит/(Пиксели*Кадры) : 0.240
Размер потока : 1,20 Гбайт (82%)
Библиотека кодирования : XviD 73
Аудио
Идентификатор : 1
Формат : AC-3
Формат/Информация : Audio Coding 3
Расширение режима : CM (complete main)
Параметр Endianness формата : Big
Идентификатор кодека : 2000
Продолжительность : 1 ч. 21 м.
Вид битрейта : Постоянный
Битрейт : 448 Кбит/сек
Каналы : 6 каналов
Расположение каналов : Front: L C R, Side: L R, LFE
Частота : 48,0 КГц
Метод сжатия : С потерями
Размер потока : 261 Мбайт (17%)
Выравнивание : Разделение по промежуткам
Продолжительность промежутка : 40 мс. (1,00 видеокадр)
Время предзагрузки промежутка : 500 мс





   Похожие торренты   Торрент   Размер 
В этой теме нет новых непрочитанных сообщений. Щедрое лето (1950) DVDRip от New-Team

16 | 2

745.26 МБ

В этой теме нет новых непрочитанных сообщений. Щедрое лето (1950) DVDRip-AVC от New-Team

195 | 14

1.46 ГБ

В этой теме нет новых непрочитанных сообщений. В мирные дни (1950) DVDRip от New-Team

8 | 1

744.93 МБ

В этой теме нет новых непрочитанных сообщений. В степи (1950) DVDRip от New-Team

63 | 4

744.33 МБ

В этой теме нет новых непрочитанных сообщений. В степи (1950) DVDRip-AVC от New-Team

38 | 2

744.87 МБ

В этой теме нет новых непрочитанных сообщений. В мирные дни (1950) DVDRip от New-Team

64 | 8

1.09 ГБ

В этой теме нет новых непрочитанных сообщений. Мусоргский (1950) DVDRip-AVC от New-Team

17 | 2

1.46 ГБ




Вы не можете начинать темы
Вы не можете отвечать на сообщения
Вы не можете редактировать свои сообщения
Вы не можете удалять свои сообщения
Вы не можете добавлять вложения

Перейти:  
Для Мосгорсуда, Роскомнадзора и рекламодателей: mosgorsud-torrent[собачка]yandex.ru
 Вход
ppkBB3cker v.2 © 2008-2014 @ PPK
[ Time : 0.053s | 17 Queries | GZIP : Off ]

Торрент трекер RUTOR.IN, Не можете зайти на rutor.org? Какой новый адрес рутор? Какое зеркало рутор? Не работает rutor.org и зеркала? Тогда наш торрент специально для вас. Rutor.in неофициальное зеркало rutor. В случае если у Вас заблокирован rutor или вдруг Вы не можете на него зайти, то Вы без труда сможете скачать бесплатно и без рекламы последние новинки кино, игр, сериалов и прочего у нас, на Rutor.in. Не нужно использовать прокси, чтобы зайти на рутор, достаточно воспользоваться нашим ресурсом. Все новые фильмы, игры, сериалы, книги и музыка за 2013 и 2014 годы через торрент бесплатно. Скачивайте фильмы в хорошем качестве, игры для пк, xbox, playstation без регистрации. У нас вы найдете новые Зарубежные сериалы и Русские сериалы 2013, 2014, 2015 годов. Оставайтесь с нами, качайте любимые фильмы, игры, сериалы, книги и музыку.