img image001 image001 image001 image001 image001 image001 image001 image001 image001 image001 image001 image001 image001 image001 image001

Planets Sun Sun Sun
Статистика раздачи
Автор: Nickolas3434 | Размер: 747.86 МБ | Добавлен: 21 сен 2015
Раздают: 45    Качают: 5
Скачать торрент
Скачать торрент
Описание торрента

СообщениеДобавлено: 21 сен 2015 


Информация о фильме
Название: Багровый цвет снегопада
Год выхода: 2009
Жанр: Драма, мелодрама
Режиссер: Владимир Мотыль
В ролях: Александр Цуркан, Артем Артемьев, Александр Балуев, Анатолий Белый, Евгений Вальц, Александр Василевский, Илья Жданников, Маргарита Иванова, Сергей Кагаков...
О фильме:
Действие фильма происходит во время Первой мировой войны. Юная киевлянка Ксения Герстель, дочь миллионера-промышленника, остается сиротой — ее отец был убит во время беспорядков, а вскоре Ксения узнает, что на фронте погиб ее жених Саша. Отчаявшись, она поступила в «Красный крест» и ушла сестрой милосердия на передовую, где встретила новую любовь — генерал-майора Ростислава Баторского, человека, который спас ей жизнь и фактически заменил отца, поселив ее после демобилизации в своей квартире в Петрограде.
Одинокий пятидесятитрехлетний генерал влюбляется в Ксению, окружает ее заботой и вниманием и, в конце концов, они становятся мужем и женой. После бесконечных потерь и разочарований, выпавших на ее долю, Ксения обретает веру в будущее, мечтает о большой счастливой семье, о детях. Но революция 1917 года повергает Россию в пучину кровавого хаоса, и надеждам Ксении не суждено сбыться…...

Страна: Россия
Студия: Vladimir Motyl Studio
Продолжительность: 02:01:26
Перевод: Не требуется
Файл
Кодек: XviD
Качество: DVDRip
Видео: 624x352 (1.77:1), 25 fps, XviD build 73 ~723 kbps avg, 0.13 bit/pixel
Звук: 48 kHz, MPEG Layer 3, 2 ch, ~128.00 kbps avg
Субтитры: Отсутствуют
Семпл
General
Complete name : D:Изготовление риповBagrovyi.tsvet.snegopada.2009.O.DVDrip ot shkiper.avi
Format : AVI
Format/Info : Audio Video Interleave
File size : 748 MiB
Duration : 2h 1mn
Overall bit rate : 861 Kbps
Writing application : VirtualDubMod 1.5.10.3 | www.virtualdub-fr.org || (build 2550/release)
Writing library : VirtualDubMod build 2550/release
Video
ID : 0
Format : MPEG-4 Visual
Format profile : Advanced Simple@L5
Format settings, BVOP : 1
Format settings, QPel : No
Format settings, GMC : No warppoints
Format settings, Matrix : Custom
Codec ID : XVID
Codec ID/Hint : XviD
Duration : 2h 1mn
Bit rate : 723 Kbps
Width : 624 pixels
Height : 352 pixels
Display aspect ratio : 16:9
Frame rate : 25.000 fps
Color space : YUV
Chroma subsampling : 4:2:0
Bit depth : 8 bits
Scan type : Progressive
Compression mode : Lossy
Bits/(Pixel*Frame) : 0.132
Stream size : 628 MiB (84%)
Writing library : XviD 73
Audio
ID : 1
Format : MPEG Audio
Format version : Version 1
Format profile : Layer 3
Mode : Joint stereo
Mode extension : MS Stereo
Codec ID : 55
Codec ID/Hint : MP3
Duration : 2h 1mn
Bit rate mode : Constant
Bit rate : 128 Kbps
Channel(s) : 2 channels
Sampling rate : 48.0 KHz
Compression mode : Lossy
Stream size : 111 MiB (15%)
Alignment : Aligned on interleaves
Interleave, duration : 40 ms (1.00 video frame)
Interleave, preload duration : 504 ms
Writing library : LAME3.99r
Encoding settings : -m j -V 4 -q 2 -lowpass 17 -b 128

Релиз от:



   Похожие торренты   Торрент   Размер 
В этой теме нет новых непрочитанных сообщений. Багровый цвет снегопада (2009) BDRip от Youtracker

9 | 1

2.19 ГБ

В этой теме нет новых непрочитанных сообщений. Багровый цвет снегопада (2009) BDRip от Youtracker

56 | 6

1.46 ГБ

В этой теме нет новых непрочитанных сообщений. Багровый цвет снегопада (2009) BDRip 720p от HDClub

25 | 5

7.22 ГБ

В этой теме нет новых непрочитанных сообщений. Багровый цвет снегопада (2009) BDRip-AVC от Тorrent-Хzona

5 | 2

1.94 ГБ

В этой теме нет новых непрочитанных сообщений. Багровый цвет снегопада (2009) BDRip 1080р | Лицензия

45 | 11

14.06 ГБ

В этой теме нет новых непрочитанных сообщений. Багровый цвет снегопада (2009) DVD9 от Youtracker | лицензия

6 | 4

7.08 ГБ

В этой теме нет новых непрочитанных сообщений. Багровый цвет снегопада (2009) BDRip от HQCLUB | Лицензия

130 | 17

2.18 ГБ




Вы не можете начинать темы
Вы не можете отвечать на сообщения
Вы не можете редактировать свои сообщения
Вы не можете удалять свои сообщения
Вы не можете добавлять вложения

Перейти:  
Для Мосгорсуда, Роскомнадзора и рекламодателей: mosgorsud-torrent[собачка]yandex.ru
 Вход
ppkBB3cker v.2 © 2008-2014 @ PPK
[ Time : 0.049s | 16 Queries | GZIP : Off ]

cron