img image001 image001 image001 image001 image001 image001 image001 image001 image001 image001 image001 image001 image001 image001 image001

Planets Sun Sun Sun
Статистика раздачи
Автор: Nickolas3434 | Размер: 744.81 МБ | Добавлен: 21 сен 2015
Раздают: 774    Качают: 54
Скачать торрент
Скачать торрент
Описание торрента

СообщениеДобавлено: 21 сен 2015 


Информация о фильме
Название: Весомое чувство
Год выхода: 2015
Жанр: Мелодрама
Режиссер: Алексей Карелин
В ролях: Елена Шилова (II), Татьяна Чердынцева, Владимир Фекленко, Александр Павлов (IV)
О фильме:
Любе слегка за тридцать. Она мила, обаятельна, добра, отличная хозяйка и кулинар. От счастливой и устроенной семейной жизни женщина полнеет, что перестает устраивать ее мужа Семена. В этом Люба убеждается, застав супруга в объятиях красотки модельной комплекции.

Страна: Россия
Студия: "Паламеда Продакшн", продюсерский центр "Фабула"
Продолжительность: 01:27:15
Перевод: Не требуется
Файл
Кодек: XviD
Качество: HDTVRip
Видео: 624x352 (1.77:1), 25 fps, XviD build 73 ~1055 kbps avg, 0.19 bit/pixel
Звук: 48 kHz, MPEG Layer 3, 2 ch, ~128.00 kbps avg
Субтитры: Отсутствуют
Семпл
General
Complete name : D:Изготовление риповVesomoe.chuvstvo.2015.HDTVRip.shkiper.avi
Format : AVI
Format/Info : Audio Video Interleave
File size : 745 MiB
Duration : 1h 27mn
Overall bit rate : 1 194 Kbps
Writing application : VirtualDubMod 1.5.10.3 | www.virtualdub-fr.org || (build 2550/release)
Writing library : VirtualDubMod build 2550/release
Video
ID : 0
Format : MPEG-4 Visual
Format profile : Advanced Simple@L5
Format settings, BVOP : 1
Format settings, QPel : No
Format settings, GMC : No warppoints
Format settings, Matrix : Custom
Codec ID : XVID
Codec ID/Hint : XviD
Duration : 1h 27mn
Bit rate : 1 056 Kbps
Width : 624 pixels
Height : 352 pixels
Display aspect ratio : 16:9
Frame rate : 25.000 fps
Color space : YUV
Chroma subsampling : 4:2:0
Bit depth : 8 bits
Scan type : Progressive
Compression mode : Lossy
Bits/(Pixel*Frame) : 0.192
Stream size : 659 MiB (88%)
Writing library : XviD 73
Audio
ID : 1
Format : MPEG Audio
Format version : Version 1
Format profile : Layer 3
Mode : Joint stereo
Codec ID : 55
Codec ID/Hint : MP3
Duration : 1h 27mn
Bit rate mode : Constant
Bit rate : 128 Kbps
Channel(s) : 2 channels
Sampling rate : 48.0 KHz
Compression mode : Lossy
Stream size : 79.9 MiB (11%)
Alignment : Aligned on interleaves
Interleave, duration : 40 ms (1.00 video frame)
Interleave, preload duration : 504 ms
Writing library : LAME3.99r
Encoding settings : -m j -V 4 -q 2 -lowpass 17 -b 128

Релиз от:



   Похожие торренты   Торрент   Размер 
В этой теме нет новых непрочитанных сообщений. Весомое чувство (2015) HDTVRip-AVC от Files-x

1155 | 46

1.37 ГБ

В этой теме нет новых непрочитанных сообщений. Весомое чувство (2015) HDTVRip от Files-x

1638 | 100

1.37 ГБ

В этой теме нет новых непрочитанных сообщений. Весомое чувство (2015) HDTVRip 720p от MediaClub

725 | 52

2.43 ГБ

В этой теме нет новых непрочитанных сообщений. Весомое чувство (2015) SATRip

1892 | 74

1.21 ГБ

В этой теме нет новых непрочитанных сообщений. Весомое чувство (2015) HDTV 1080i от Files-x

91 | 9

5.17 ГБ

В этой теме нет новых непрочитанных сообщений. Шестое чувство / Re-Kan! [01-13 из 13] (2015) HDTVRip 720p | AniDub

325 | 16

4.32 ГБ

В этой теме нет новых непрочитанных сообщений. Вьюга (2015) HDTVRip от Шкипер

1435 | 141

745.19 МБ




Вы не можете начинать темы
Вы не можете отвечать на сообщения
Вы не можете редактировать свои сообщения
Вы не можете удалять свои сообщения
Вы не можете добавлять вложения

Перейти:  
Для Мосгорсуда, Роскомнадзора и рекламодателей: mosgorsud-torrent[собачка]yandex.ru
 Вход
ppkBB3cker v.2 © 2008-2014 @ PPK
[ Time : 0.524s | 15 Queries | GZIP : Off ]

Торрент трекер RUTOR.IN, Не можете зайти на rutor.org? Какой новый адрес рутор? Какое зеркало рутор? Не работает rutor.org и зеркала? Тогда наш торрент специально для вас. Rutor.in неофициальное зеркало rutor. В случае если у Вас заблокирован rutor или вдруг Вы не можете на него зайти, то Вы без труда сможете скачать бесплатно и без рекламы последние новинки кино, игр, сериалов и прочего у нас, на Rutor.in. Не нужно использовать прокси, чтобы зайти на рутор, достаточно воспользоваться нашим ресурсом. Все новые фильмы, игры, сериалы, книги и музыка за 2013 и 2014 годы через торрент бесплатно. Скачивайте фильмы в хорошем качестве, игры для пк, xbox, playstation без регистрации. У нас вы найдете новые Зарубежные сериалы и Русские сериалы 2013, 2014, 2015 годов. Оставайтесь с нами, качайте любимые фильмы, игры, сериалы, книги и музыку.
cron