img image001 image001 image001 image001 image001 image001 image001 image001 image001 image001 image001 image001 image001 image001 image001

Planets Sun Sun Sun
Статистика раздачи
Автор: Nickolas3434 | Размер: 7.2 ГБ | Добавлен: 22 сен 2015
Раздают: 601    Качают: 62
Скачать торрент
Скачать торрент
Описание торрента

СообщениеДобавлено: 22 сен 2015 


Информация о фильме
Название: Место встречи изменить нельзя
Год выхода: 1979
Жанр: Криминал, детектив, приключения
Режиссер: Станислав Говорухин
В ролях: Владимир Высоцкий, Владимир Конкин, Сергей Юрский, Зиновий Гердт, Наталья Фатеева, Лев Перфилов, Александр Белявский, Виктор Павлов, Армен Джигарханян, Леонид Куравлёв, Светлана Светличная, Евгений Евстигнеев, Александр Абдулов, Лариса Удовиченко, Иван Бортник, Станислав Садальский, Андрей Градов, Валерия Заклунная, Евгений Шутов, Александр Милютин, Наталья Данилова, Алексей Миронов, Всеволод Абдулов, Евгений Леонов-Гладышев, Нина Корниенко, Павел Махотин, Владлен Паулус, Людмила Давыдова, Екатерина Градова, Олег Савосин, Владимир Жариков, Юнона Карева, Николай Слесарев, Наталья Петрова, Нина Озорнина, Татьяна Ткач, Наталия Ченчик, Наталья Крачковская, Валентин Кулик
О фильме: По роману братьев Вайнеров "Эра милосердия". Одна из последних и самых ярких ролей в кино Владимира Высоцкого.
Только что закончилась Великая Отечественная война. Демобилизовавшийся офицер-разведчик Владимир Шарапов начинает работать в Московском уголовном розыске, в отделе по борьбе с бандитизмом, руководит которым известный всем московским ворам и бандитам Глеб Жеглов. Одно из первых дел, к расследованию которого подключается Володя, - убийство Ларисы Груздевой, на первый взгляд показавшееся простым. Однако, позже выясняется, что оно тесно связано с делом таинственной и неуловимой банды "Черная кошка", за которой давно (и пока безуспешно) гоняется весь МУР.
Страна: СССР
Продолжительность: 5 x ~ 01:15:00
Перевод: не требуется
Файл
Кодек: x264
Качество: DVDRip-AVC
Видео: MPEG-4 AVC, ~ 2450 Кбит/с, 698x574@748x574
Звук: AC3, 6 ch, 384 Кбит/с
Субтитры: Русские, английские


raw [info]: 698x574p 16:15 @ 25/1 fps (cfr)
x264 [info]: using SAR=16/15
x264 [info]: using cpu capabilities: MMX2 SSE2Fast SSSE3 SSE4.2 AVX
x264 [info]: profile High, level 4.1
x264 [info]: frame I:51 Avg QP:17.86 size: 71073
x264 [info]: frame P:536 Avg QP:21.55 size: 26576
x264 [info]: frame B:1936 Avg QP:22.60 size: 7110
============================================================================================================
Общее
Уникальный идентификатор : 192930687766867586488948945409402625799 (0x9125194FF26A7403BB5D9F355A8E5F07)
Полное имя : R:МОИ РИПЫМесто встречи изменить нельзя_1979-DVDRip-AVCЖеглов-1.mkv
Формат : Matroska
Версия формата : Version 2
Размер файла : 1,35 Гбайт
Продолжительность : 1 ч. 6 м.
Общий поток : 2886 Кбит/сек
Дата кодирования : UTC 2015-09-21 10:41:31
Программа кодирования : mkvmerge v5.8.0 ('No Sleep / Pillow') built on Sep 2 2012 15:37:04
Библиотека кодирования : libebml v1.2.3 + libmatroska v1.3.0
Видео
Идентификатор : 1
Формат : AVC
Формат/Информация : Advanced Video Codec
Профиль формата : High@L4.1
Параметр CABAC формата : Да
Параметр ReFrames формата : 14 кадров
Идентификатор кодека : V_MPEG4/ISO/AVC
Продолжительность : 1 ч. 6 м.
Битрейт : 2500 Кбит/сек
Ширина : 698 пикселей
Высота : 574 пикселя
Соотношение сторон : 4:3
Соотношение сторон в оригинале : 4:3
Режим частоты кадров : Постоянный
Частота кадров : 25,000 кадров/сек
Цветовое пространство : YUV
Субдискретизация насыщенности : 4:2:0
Битовая глубина : 8 бит
Тип развёртки : Прогрессивная
Бит/(Пиксели*Кадры) : 0.250
Размер потока : 1,14 Гбайт (85%)
Библиотека кодирования : x264 core 146 r2538 121396c
Настройки программы : cabac=1 / ref=14 / deblock=1:-2:-2 / analyse=0x3:0x133 / me=umh / subme=10 / psy=1 / psy_rd=1.03:0.06 / mixed_ref=1 / me_range=32 / chroma_me=1 / trellis=2 / 8x8dct=1 / cqm=0 / deadzone=21,11 / fast_pskip=0 / chroma_qp_offset=-3 / threads=12 / lookahead_threads=2 / sliced_threads=0 / nr=0 / decimate=0 / interlaced=0 / bluray_compat=0 / constrained_intra=0 / bframes=8 / b_pyramid=2 / b_adapt=2 / b_bias=0 / direct=3 / weightb=1 / open_gop=0 / weightp=2 / keyint=250 / keyint_min=25 / scenecut=40 / intra_refresh=0 / rc=2pass / mbtree=0 / bitrate=2500 / ratetol=1.0 / qcomp=0.60 / qpmin=0 / qpmax=39 / qpstep=4 / cplxblur=20.0 / qblur=0.5 / ip_ratio=1.40 / pb_ratio=1.30 / aq=1:1.00
Язык : English
Default : Да
Forced : Нет
Цветовой диапазон : Limited
Основные цвета : BT.601 PAL
Характеристики трансфера : BT.470 System B, BT.470 System G
Коэффициенты матрицы : BT.601
Аудио
Идентификатор : 2
Формат : AC-3
Формат/Информация : Audio Coding 3
Расширение режима : CM (complete main)
Параметр Endianness формата : Big
Идентификатор кодека : A_AC3
Продолжительность : 1 ч. 6 м.
Вид битрейта : Постоянный
Битрейт : 384 Кбит/сек
Каналы : 6 каналов
Расположение каналов : Front: L C R, Side: L R, LFE
Частота : 48,0 КГц
Битовая глубина : 16 бит
Метод сжатия : С потерями
Размер потока : 183 Мбайт (13%)
Язык : Russian
Default : Да
Forced : Нет
Текст #1
Идентификатор : 3
Формат : SSA
Идентификатор кодека : S_TEXT/SSA
Идентификатор кодека/Информация : Sub Station Alpha
Метод сжатия : Без потерь
Язык : Russian
Default : Да
Forced : Нет
Текст #2
Идентификатор : 4
Формат : SSA
Идентификатор кодека : S_TEXT/SSA
Идентификатор кодека/Информация : Sub Station Alpha
Метод сжатия : Без потерь
Язык : English
Default : Нет
Forced : Нет
Меню
00:00:00.000 : en:Chapter 1
00:02:45.360 : en:Chapter 2
00:08:39.240 : en:Chapter 3
00:12:39.960 : en:Chapter 4
00:16:14.880 : en:Chapter 5
00:19:07.800 : en:Chapter 6
00:25:53.280 : en:Chapter 7
00:31:29.280 : en:Chapter 8
00:42:16.680 : en:Chapter 9
00:52:30.360 : en:Chapter 10
00:55:05.520 : en:Chapter 11
01:02:12.840 : en:Chapter 12
01:04:01.440 : en:Chapter 13
01:05:27.000

Сравнение с исходником: http://screenshotcomparison.com/compari ... /picture:0
Релиз от:
Автор релиза:



   Похожие торренты   Торрент   Размер 
В этой теме нет новых непрочитанных сообщений. Место встречи изменить нельзя (1979) DVDRip-AVC

148 | 13

7.31 ГБ

В этой теме нет новых непрочитанных сообщений. Место встречи изменить нельзя (1979) DVDRip

362 | 16

4.36 ГБ

В этой теме нет новых непрочитанных сообщений. Место встречи изменить нельзя (1979) DVDRip-AVC

359 | 31

6.3 ГБ

В этой теме нет новых непрочитанных сообщений. Место встречи изменить нельзя [01-05 из 05] (1979) DVDRip от GeneralFilm

474 | 68

4.35 ГБ

В этой теме нет новых непрочитанных сообщений. Место встречи изменить нельзя (1979) DVD9

4 | 3

15.51 ГБ

В этой теме нет новых непрочитанных сообщений. Место встречи изменить нельзя (1979) Blu-ray 1080p

16 | 21

42.45 ГБ

В этой теме нет новых непрочитанных сообщений. Место встречи изменить нельзя (1979) ВDRip от New-team

124 | 36

4.37 ГБ




Вы не можете начинать темы
Вы не можете отвечать на сообщения
Вы не можете редактировать свои сообщения
Вы не можете удалять свои сообщения
Вы не можете добавлять вложения

Перейти:  
Для Мосгорсуда, Роскомнадзора и рекламодателей: mosgorsud-torrent[собачка]yandex.ru
 Вход
ppkBB3cker v.2 © 2008-2014 @ PPK
[ Time : 0.049s | 14 Queries | GZIP : Off ]
CGP output time : 0.046s | 5 Queries | GZIP : Off

Торрент трекер RUTOR.IN, Не можете зайти на rutor.org? Какой новый адрес рутор? Какое зеркало рутор? Не работает rutor.org и зеркала? Тогда наш торрент специально для вас. Rutor.in неофициальное зеркало rutor. В случае если у Вас заблокирован rutor или вдруг Вы не можете на него зайти, то Вы без труда сможете скачать бесплатно и без рекламы последние новинки кино, игр, сериалов и прочего у нас, на Rutor.in. Не нужно использовать прокси, чтобы зайти на рутор, достаточно воспользоваться нашим ресурсом. Все новые фильмы, игры, сериалы, книги и музыка за 2013 и 2014 годы через торрент бесплатно. Скачивайте фильмы в хорошем качестве, игры для пк, xbox, playstation без регистрации. У нас вы найдете новые Зарубежные сериалы и Русские сериалы 2013, 2014, 2015 годов. Оставайтесь с нами, качайте любимые фильмы, игры, сериалы, книги и музыку.