img image001 image001 image001 image001 image001 image001 image001 image001 image001 image001 image001 image001 image001 image001 image001

Planets Sun Sun Sun
Статистика раздачи
Автор: Nickolas3434 | Размер: 745.64 МБ | Добавлен: 23 сен 2015
Раздают: 6    Качают: 8
Скачать торрент
Скачать торрент
Описание торрента

СообщениеДобавлено: 23 сен 2015 

Страна: СССР
Производство: Мосфильм
Жанр: драма
Год выпуска: 1950
Продолжительность: 01:40:01
Перевод: Не требуется
Cубтитры: нет
Оригинальная аудиодорожка: русский
Режиссер: Александр Столпер
В ролях:
Николай Охлопков, Лев Свердлин, Павел Кадочников, Валериан Квачадзе, Александр Ханов, Григорий Кириллов, Татьяна Махова (II), Иветта Киселёва, Владимир Владиславский, Сергей Столяров, Марк Бернес, Леонид Кмит, Степан Крылов, Павел Оленев, Владимир Соловьёв, Виктор Бубнов, Сергей Гурзо (старший), П. Иванов...
Полный список актёров
Описание:
По одноименному роману Василия Ажаева.
Около Красноярска прокладывается нефтепровод. Идет война. Поэтому есть среди молодых специалистов такие, которые чувствуют себя неуместными на поле трудовых сражений. Некоторым задача провести трубопровод в кратчайшие сроки кажется невозможной и ненужной...





Источник: DVD5 R5
Качество видео: DVDRip
Формат видео: AVI
Видео: 576x432 (4:3), 25 fps, XviD ~ 904 kbps avg, 0.145 bit/pixel
Аудио: 48 kHz, MP3 2.0, 128 kbps
Раздача от:
Общее
Полное имя : Daleko.ot.Moskvy.1950.DVDRip-745_[New-team]_by_AVP_Studio.avi
Формат : AVI
Формат/Информация : Audio Video Interleave
Размер файла : 746 Мбайт
Продолжительность : 1 ч. 40 м.
Общий поток : 1042 Кбит/сек
Программа кодирования : VirtualDubMod 1.5.10.3 | www.virtualdub-fr.org || (build 2550/release)
Библиотека кодирования : VirtualDubMod build 2550/release
Видео
Идентификатор : 0
Формат : MPEG-4 Visual
Профиль формата : Advanced Simple@L5
Параметр BVOP формата : 1
Параметр QPel формата : Нет
Параметр GMC формата : Без точки перехода
Параметр матрицы формата : Выборочная
Идентификатор кодека : XVID
Идентификатор кодека/Подсказка : XviD
Продолжительность : 1 ч. 40 м.
Битрейт : 904 Кбит/сек
Ширина : 576 пикселей
Высота : 432 пикселя
Соотношение сторон : 4:3
Частота кадров : 25,000 кадров/сек
Цветовое пространство : YUV
Субдискретизация насыщенности : 4:2:0
Битовая глубина : 8 бит
Тип развёртки : Прогрессивная
Метод сжатия : С потерями
Бит/(Пиксели*Кадры) : 0.145
Размер потока : 647 Мбайт (87%)
Библиотека кодирования : XviD 73
Аудио
Идентификатор : 1
Формат : MPEG Audio
Версия формата : Version 1
Профиль формата : Layer 3
Идентификатор кодека : 55
Идентификатор кодека/Подсказка : MP3
Продолжительность : 1 ч. 40 м.
Вид битрейта : Постоянный
Битрейт : 128 Кбит/сек
Каналы : 2 канала
Частота : 48,0 КГц
Метод сжатия : С потерями
Размер потока : 91,6 Мбайт (12%)
Выравнивание : Соединение по промежуткам
Продолжительность промежутка : 40 мс. (1,00 видеокадр)
Время предзагрузки промежутка : 504 мс.
Библиотека кодирования : LAME3.99r
Настройки программы : -m s -V 4 -q 2 -lowpass 17 -b 128





   Похожие торренты   Торрент   Размер 
В этой теме нет новых непрочитанных сообщений. Далеко от Москвы (1950) DVDRip от New-Team

12 | 5

1.46 ГБ

В этой теме нет новых непрочитанных сообщений. Далеко от Москвы (1950) DVDRip-AVC от New-Team

22 | 2

1.46 ГБ

В этой теме нет новых непрочитанных сообщений. Далеко от Москвы (1950) DVDRip

13 | 4

799.88 МБ

В этой теме нет новых непрочитанных сообщений. Небо Москвы (1944) DVDRip-AVC от New-Team

160 | 9

1.09 ГБ

В этой теме нет новых непрочитанных сообщений. Небо Москвы (1944) DVDRip от New-Team

8 | 6

744.8 МБ

В этой теме нет новых непрочитанных сообщений. Небо Москвы (1944) DVDRip от New-Team

7 | 5

1.09 ГБ

В этой теме нет новых непрочитанных сообщений. В мирные дни (1950) DVDRip от New-Team

64 | 8

1.09 ГБ




Вы не можете начинать темы
Вы не можете отвечать на сообщения
Вы не можете редактировать свои сообщения
Вы не можете удалять свои сообщения
Вы не можете добавлять вложения

Перейти:  
Для Мосгорсуда, Роскомнадзора и рекламодателей: mosgorsud-torrent[собачка]yandex.ru
 Вход
ppkBB3cker v.2 © 2008-2014 @ PPK
[ Time : 0.039s | 19 Queries | GZIP : Off ]

Торрент трекер RUTOR.IN, Не можете зайти на rutor.org? Какой новый адрес рутор? Какое зеркало рутор? Не работает rutor.org и зеркала? Тогда наш торрент специально для вас. Rutor.in неофициальное зеркало rutor. В случае если у Вас заблокирован rutor или вдруг Вы не можете на него зайти, то Вы без труда сможете скачать бесплатно и без рекламы последние новинки кино, игр, сериалов и прочего у нас, на Rutor.in. Не нужно использовать прокси, чтобы зайти на рутор, достаточно воспользоваться нашим ресурсом. Все новые фильмы, игры, сериалы, книги и музыка за 2013 и 2014 годы через торрент бесплатно. Скачивайте фильмы в хорошем качестве, игры для пк, xbox, playstation без регистрации. У нас вы найдете новые Зарубежные сериалы и Русские сериалы 2013, 2014, 2015 годов. Оставайтесь с нами, качайте любимые фильмы, игры, сериалы, книги и музыку.
cron