img image001 image001 image001 image001 image001 image001 image001 image001 image001 image001 image001 image001 image001 image001 image001

Planets Sun Sun Sun
Статистика раздачи
Автор: Nickolas3434 | Размер: 1.19 ГБ | Добавлен: 23 сен 2015
Раздают: 6    Качают: 3
Скачать торрент
Скачать торрент
Описание торрента

СообщениеДобавлено: 23 сен 2015 

Страна: СССР
Производство:Мосфильм
Жанр: военный
Год выпуска: 1977
Продолжительность: 01:22:49
Перевод: Не требуется
Cубтитры: нет
Оригинальная аудиодорожка: русский
Режиссер: Владимир Шамшурин
В ролях:
Алексей Черствов, Тамара Сёмина, Любовь Соколова, Римма Маркова, Елизавета Никищихина, Светлана Пенкина, Елена Максимова, Елена Драпеко, Светлана Старикова, Юрий Чулюкин, Анатолий (Отто) Солоницын, Валерий Квитка, Даниил Нетребин, Владимир Гаев, Екатерина Воронина, Андрей Экономцев, Валентин Карманов, Оксана Попова (II), Аня Матвеева, Юля Дрюлина...
Полный список актёров
Описание:
Время действия фильма - 1944-1945 годы. История, рассказанная по детским впечатлениям уже взрослого человека, высвечивает детали и образы, раскрывающие суть происходящих событий в северном городке Заозерье, где люди продолжали жить, любить, плакать, петь и ждать вестей с фронта.





Источник: DVB
Качество видео: SATRip
Формат видео: AVI
Видео: 704x320 (2,2:1), 25 fps, XviD ~ 1848 kbps avg, 0.328 bit/pixel
Аудио: 48 kHz, Dolby Digital AC3 2.0, 192 kbps
Раздача от:
Общее
Полное имя : A.u.nas.byla.tishina.1977.SATRip_[New-team]_by_AVP_Studio.avi
Формат : AVI
Формат/Информация : Audio Video Interleave
Размер файла : 1,19 Гбайт
Продолжительность : 1 ч. 22 м.
Общий поток : 2051 Кбит/сек
Режиссёр : SATrip by Animat
Программа кодирования : VirtualDubModRus 1.5.10.2 (build 2542/release)
Библиотека кодирования : VirtualDubMod build 2542/release
Видео
Идентификатор : 0
Формат : MPEG-4 Visual
Профиль формата : Advanced Simple@L5
Параметр BVOP формата : 2
Параметр QPel формата : Нет
Параметр GMC формата : Без точки перехода
Параметр матрицы формата : Default (MPEG)
Режим смешивания : Сжатый битовый поток
Идентификатор кодека : XVID
Идентификатор кодека/Подсказка : XviD
Продолжительность : 1 ч. 22 м.
Битрейт : 1849 Кбит/сек
Ширина : 704 пикселя
Высота : 320 пикселей
Соотношение сторон : 2,2:1
Частота кадров : 25,000 кадров/сек
Цветовое пространство : YUV
Субдискретизация насыщенности : 4:2:0
Битовая глубина : 8 бит
Тип развёртки : Прогрессивная
Метод сжатия : С потерями
Бит/(Пиксели*Кадры) : 0.328
Размер потока : 1,07 Гбайт (90%)
Библиотека кодирования : XviD 73
Аудио
Идентификатор : 1
Формат : AC-3
Формат/Информация : Audio Coding 3
Профиль формата : Dolby Digital
Расширение режима : CM (complete main)
Параметр Endianness формата : Big
Идентификатор кодека : 2000
Продолжительность : 1 ч. 22 м.
Вид битрейта : Постоянный
Битрейт : 192 Кбит/сек
Каналы : 2 канала
Расположение каналов : Front: L R
Частота : 48,0 КГц
Метод сжатия : С потерями
Задержка видео : 8 мс.
Размер потока : 114 Мбайт (9%)
Выравнивание : Разделение по промежуткам
Продолжительность промежутка : 40 мс. (1,00 видеокадр)
Время предзагрузки промежутка : 500 мс





   Похожие торренты   Торрент   Размер 
В этой теме нет новых непрочитанных сообщений. А у нас была тишина... (1950) SATRip от New-Team

14 | 2

744.93 МБ

В этой теме нет новых непрочитанных сообщений. А у нас была тишина... (1950) SATRip-AVC от New-Team

29 | 3

1.09 ГБ

В этой теме нет новых непрочитанных сообщений. Жуковский (1950) SATRip от New-Team

16 | 8

745.36 МБ

В этой теме нет новых непрочитанных сообщений. Жуковский (1950) SATRip от New-Team

20 | 5

1.09 ГБ

В этой теме нет новых непрочитанных сообщений. Жуковский (1950) SATRip-AVC от New-Team

35 | 3

1.09 ГБ

В этой теме нет новых непрочитанных сообщений. Заговор обреченных (1950) SATRip-AVC от New-Team

19 | 4

1.46 ГБ

В этой теме нет новых непрочитанных сообщений. Заговор обреченных (1950) SATRip от New-Team

5 | 7

1.46 ГБ




Вы не можете начинать темы
Вы не можете отвечать на сообщения
Вы не можете редактировать свои сообщения
Вы не можете удалять свои сообщения
Вы не можете добавлять вложения

Перейти:  
Для Мосгорсуда, Роскомнадзора и рекламодателей: mosgorsud-torrent[собачка]yandex.ru
 Вход
ppkBB3cker v.2 © 2008-2014 @ PPK
[ Time : 0.023s | 15 Queries | GZIP : On ]

Торрент трекер RUTOR.IN, Не можете зайти на rutor.org? Какой новый адрес рутор? Какое зеркало рутор? Не работает rutor.org и зеркала? Тогда наш торрент специально для вас. Rutor.in неофициальное зеркало rutor. В случае если у Вас заблокирован rutor или вдруг Вы не можете на него зайти, то Вы без труда сможете скачать бесплатно и без рекламы последние новинки кино, игр, сериалов и прочего у нас, на Rutor.in. Не нужно использовать прокси, чтобы зайти на рутор, достаточно воспользоваться нашим ресурсом. Все новые фильмы, игры, сериалы, книги и музыка за 2013 и 2014 годы через торрент бесплатно. Скачивайте фильмы в хорошем качестве, игры для пк, xbox, playstation без регистрации. У нас вы найдете новые Зарубежные сериалы и Русские сериалы 2013, 2014, 2015 годов. Оставайтесь с нами, качайте любимые фильмы, игры, сериалы, книги и музыку.