img image001 image001 image001 image001 image001 image001 image001 image001 image001 image001 image001 image001 image001 image001 image001

Planets Sun Sun Sun
Статистика раздачи
Автор: Nickolas3434 | Размер: 745.41 МБ | Добавлен: 23 сен 2015
Раздают: 53    Качают: 11
Скачать торрент
Скачать торрент
Описание торрента

СообщениеДобавлено: 23 сен 2015 

Страна: СССР
Производство: Мосфильм
Жанр: боевик, военный
Год выпуска: 1977
Продолжительность: 01:15:12
Перевод: Не требуется
Cубтитры: нет
Оригинальная аудиодорожка: русский
Режиссер: Игорь Слабневич
В ролях:
Ольга Агеева, Владимир Широков, Борис Сморчков, Игорь Ясулович, Алексей Ясулович, Раиса Рязанова, Николай Маковский, Татьяна Кочемасова, Майя Булгакова, Наталья Фатеева...
Полный список актёров
Описание:
Первые месяцы Великой Отечественной войны. Воинский эшелон в небольшом городке готовился к отправке на фронт. Четверо солдат, получив увольнительную в город, отстали от поезда, что по законам военного времени считалось дезертирством. Добравшись до железнодорожного моста, новобранцы увидели группу немецких диверсантов и вступили в неравную схватку с вражеским десантом. Ценой собственной жизни герои спасли мост и предотвратили гибель эшелона.





Источник: DVB
Качество видео: SATRip
Формат видео: AVI
Видео: 720x384 (1,85:1), 25 fps, XviD ~ 1184 kbps avg, 0.171 bit/pixel
Аудио: 48 kHz, Dolby Digital AC3 2.0, 192 kbps
Раздача от:
Общее
Полное имя : Po.zakonam.voennogo.vremeni.1982.SATRip-745_[New-team]_by_AVP_Studio.avi
Формат : AVI
Формат/Информация : Audio Video Interleave
Размер файла : 745 Мбайт
Продолжительность : 1 ч. 15 м.
Общий поток : 1386 Кбит/сек
Программа кодирования : VirtualDubMod 1.5.10.3 | www.virtualdub-fr.org || (build 2550/release)
Библиотека кодирования : VirtualDubMod build 2550/release
Видео
Идентификатор : 0
Формат : MPEG-4 Visual
Профиль формата : Advanced Simple@L5
Параметр BVOP формата : 1
Параметр QPel формата : Нет
Параметр GMC формата : Без точки перехода
Параметр матрицы формата : Выборочная
Идентификатор кодека : XVID
Идентификатор кодека/Подсказка : XviD
Продолжительность : 1 ч. 15 м.
Битрейт : 1184 Кбит/сек
Ширина : 720 пикселей
Высота : 384 пикселя
Соотношение сторон : 1,85:1
Частота кадров : 25,000 кадров/сек
Цветовое пространство : YUV
Субдискретизация насыщенности : 4:2:0
Битовая глубина : 8 бит
Тип развёртки : Прогрессивная
Метод сжатия : С потерями
Бит/(Пиксели*Кадры) : 0.171
Размер потока : 637 Мбайт (85%)
Библиотека кодирования : XviD 73
Аудио
Идентификатор : 1
Формат : AC-3
Формат/Информация : Audio Coding 3
Расширение режима : CM (complete main)
Параметр Endianness формата : Big
Идентификатор кодека : 2000
Продолжительность : 1 ч. 15 м.
Вид битрейта : Постоянный
Битрейт : 192 Кбит/сек
Каналы : 2 канала
Расположение каналов : Front: L R
Частота : 48,0 КГц
Метод сжатия : С потерями
Размер потока : 103 Мбайт (14%)
Выравнивание : Разделение по промежуткам
Продолжительность промежутка : 40 мс. (1,00 видеокадр)
Время предзагрузки промежутка : 500 мс





   Похожие торренты   Торрент   Размер 
В этой теме нет новых непрочитанных сообщений. По законам военного времени (1982) SATRip-AVC от New-Team

135 | 17

1.09 ГБ

В этой теме нет новых непрочитанных сообщений. По законам военного времени (1982) DVB

288 | 13

3.22 ГБ

В этой теме нет новых непрочитанных сообщений. По законам военного времени [01 из 12] (2016) SATRip от Files-x

752 | 96

2.43 ГБ

В этой теме нет новых непрочитанных сообщений. По законам военного времени [01 из 12] (2016) SATRip от Files-x

611 | 273

3.71 ГБ

В этой теме нет новых непрочитанных сообщений. По законам военного времени [01-12 из 12] (2015) SATRip от GeneralFilm

1562 | 329

4.36 ГБ

В этой теме нет новых непрочитанных сообщений. По законам военного времени [01 из 12] (2015) SATRip-AVC от Files-x

45 | 5

4.89 ГБ

В этой теме нет новых непрочитанных сообщений. По законам военного времени [01 из 12] (2015) SATRip-AVC от Files-x

2 | 3

602.23 МБ




Вы не можете начинать темы
Вы не можете отвечать на сообщения
Вы не можете редактировать свои сообщения
Вы не можете удалять свои сообщения
Вы не можете добавлять вложения

Перейти:  
Для Мосгорсуда, Роскомнадзора и рекламодателей: mosgorsud-torrent[собачка]yandex.ru
 Вход
ppkBB3cker v.2 © 2008-2014 @ PPK
[ Time : 0.047s | 16 Queries | GZIP : Off ]

Торрент трекер RUTOR.IN, Не можете зайти на rutor.org? Какой новый адрес рутор? Какое зеркало рутор? Не работает rutor.org и зеркала? Тогда наш торрент специально для вас. Rutor.in неофициальное зеркало rutor. В случае если у Вас заблокирован rutor или вдруг Вы не можете на него зайти, то Вы без труда сможете скачать бесплатно и без рекламы последние новинки кино, игр, сериалов и прочего у нас, на Rutor.in. Не нужно использовать прокси, чтобы зайти на рутор, достаточно воспользоваться нашим ресурсом. Все новые фильмы, игры, сериалы, книги и музыка за 2013 и 2014 годы через торрент бесплатно. Скачивайте фильмы в хорошем качестве, игры для пк, xbox, playstation без регистрации. У нас вы найдете новые Зарубежные сериалы и Русские сериалы 2013, 2014, 2015 годов. Оставайтесь с нами, качайте любимые фильмы, игры, сериалы, книги и музыку.