img image001 image001 image001 image001 image001 image001 image001 image001 image001 image001 image001 image001 image001 image001 image001

Planets Sun Sun Sun
Статистика раздачи
Автор: Nickolas3434 | Размер: 1.07 ГБ | Добавлен: 24 сен 2015
Раздают: 19    Качают: 10
Скачать торрент
Скачать торрент
Описание торрента

СообщениеДобавлено: 24 сен 2015 

Страна: СССР, Болгария
Производство: Беларусьфильм, "Бояна"
Жанр: драма, военный
Год выпуска: 1975
Продолжительность: 01:15:58
Перевод: Не требуется
Cубтитры: нет
Оригинальная аудиодорожка: русский
Режиссер: Игорь Добролюбов
В ролях:
Анатолий Кузнецов, Стефан Данаилов, Светлана Тома, Владимир Басов, Никола Тодев, Милка Туйкова, Иван Цветарский, Георгий Бахчеванов, Пенко Пенков, Иван Григоров, Иван Гайдарджиев, Владимир Давчев, Николай Клисуров...
Полный список актёров
Описание:
Фильм повествует об одном из эпизодов освобождения Болгарии советскими солдатами в сентябре 1944 года. У следующей в тыловом обозе конной повозки Алеся Казанка ломается колесо и ему приходится завернуть в ближайшую деревню. Жители деревни давно уже ждут освободителей и устраивают Алесю торжественную встречу. Местные мастера ставят на его телегу новое колесо – красивое, расписное. Казанка просит подвести до города студент Живко, которого сослали сюда прежние власти за подпольную работу. У Алеся уже есть одна пассажирка – румынка Марика, освобожденная советскими бойцами из фашистского плена. Вскоре у троих путешественников появляется еще один попутчик - в плен Казанку сдается немецкий солдат Иоганн. Прежде чем герои фильма доберутся до города, произойдет еще много встреч и событий...





Источник: DVB
Качество видео: SATRip-AVC
Формат видео: MKV
Видео: 704->768x576 (4:3), 25 fps, H264 ~ 1858 kbps avg, 0.183 bit/pixel
Аудио: 48 kHz, Dolby Digital AC3 2.0, 192 kbps
Раздача от:
Общее
Полное имя : Bratushka.1975.SATRip-AVC_[New-team]_by_AVP_Studio.mkv
Формат : Matroska
Версия формата : Version 2
Размер файла : 1,09 Гбайт
Продолжительность : 1 ч. 15 м.
Общий поток : 2052 Кбит/сек
Дата кодирования : UTC 2015-09-21 16:25:31
Программа кодирования : mkvmerge v6.1.0 ('Old Devil') built on Mar 4 2013 09:10:42
Библиотека кодирования : libebml v1.3.0 + libmatroska v1.4.0
Видео
Идентификатор : 1
Формат : AVC
Формат/Информация : Advanced Video Codec
Профиль формата : High@L4.1
Параметр CABAC формата : Да
Параметр ReFrames формата : 8 кадров
Идентификатор кодека : V_MPEG4/ISO/AVC
Продолжительность : 1 ч. 15 м.
Битрейт : 1858 Кбит/сек
Ширина : 704 пикселя
Высота : 576 пикселей
Соотношение сторон : 4:3
Режим частоты кадров : Постоянный
Частота кадров : 25,000 кадров/сек
Стандарт вещания : PAL
Цветовое пространство : YUV
Субдискретизация насыщенности : 4:2:0
Битовая глубина : 8 бит
Тип развёртки : Прогрессивная
Бит/(Пиксели*Кадры) : 0.183
Размер потока : 988 Мбайт (89%)
Библиотека кодирования : x264 core 130 r2273 b3065e6
Настройки программы : cabac=1 / ref=8 / deblock=1:-2:-1 / analyse=0x3:0x113 / me=umh / subme=10 / psy=1 / psy_rd=1.00:0.05 / mixed_ref=1 / me_range=32 / chroma_me=1 / trellis=2 / 8x8dct=1 / cqm=0 / deadzone=21,11 / fast_pskip=0 / chroma_qp_offset=-3 / threads=6 / lookahead_threads=1 / sliced_threads=0 / nr=0 / decimate=0 / interlaced=0 / bluray_compat=0 / constrained_intra=0 / bframes=8 / b_pyramid=2 / b_adapt=2 / b_bias=0 / direct=3 / weightb=1 / open_gop=0 / weightp=2 / keyint=250 / keyint_min=25 / scenecut=40 / intra_refresh=0 / rc=2pass / mbtree=0 / bitrate=1858 / ratetol=1.0 / qcomp=0.60 / qpmin=0 / qpmax=69 / qpstep=4 / cplxblur=20.0 / qblur=0.5 / ip_ratio=1.40 / pb_ratio=1.30 / aq=1:1.00
Default : Да
Forced : Нет
Аудио
Идентификатор : 2
Формат : AC-3
Формат/Информация : Audio Coding 3
Профиль формата : Dolby Digital
Расширение режима : CM (complete main)
Параметр Endianness формата : Big
Идентификатор кодека : A_AC3
Продолжительность : 1 ч. 15 м.
Вид битрейта : Постоянный
Битрейт : 192 Кбит/сек
Каналы : 2 канала
Расположение каналов : Front: L R
Частота : 48,0 КГц
Метод сжатия : С потерями
Размер потока : 104 Мбайт (9%)
Default : Да
Forced : Нет





   Похожие торренты   Торрент   Размер 
В этой теме нет новых непрочитанных сообщений. Братушка / Bratyuzhka (1975) SATRip от New-Team

27 | 7

746.75 МБ

В этой теме нет новых непрочитанных сообщений. Братушка / Bratyuzhka (1975) SATRip-AVC от New-Team

31 | 6

1.09 ГБ

В этой теме нет новых непрочитанных сообщений. Волчья стая (1975) SATRip-AVC от New-Team

133 | 6

744.06 МБ

В этой теме нет новых непрочитанных сообщений. Волчья стая (1975) SATRip от New-Team

72 | 12

744.94 МБ

В этой теме нет новых непрочитанных сообщений. Порт (1975) DVDRip-AVC от New-Team

24 | 7

744.62 МБ

В этой теме нет новых непрочитанных сообщений. Афоня (1975) BDRip от New-Team

459 | 65

744.67 МБ

В этой теме нет новых непрочитанных сообщений. Старший сын (1975) DVDRip-AVC от New-Team

54 | 31

2.19 ГБ




Вы не можете начинать темы
Вы не можете отвечать на сообщения
Вы не можете редактировать свои сообщения
Вы не можете удалять свои сообщения
Вы не можете добавлять вложения

Перейти:  
Для Мосгорсуда, Роскомнадзора и рекламодателей: mosgorsud-torrent[собачка]yandex.ru
 Вход
ppkBB3cker v.2 © 2008-2014 @ PPK
[ Time : 0.037s | 15 Queries | GZIP : Off ]

Торрент трекер RUTOR.IN, Не можете зайти на rutor.org? Какой новый адрес рутор? Какое зеркало рутор? Не работает rutor.org и зеркала? Тогда наш торрент специально для вас. Rutor.in неофициальное зеркало rutor. В случае если у Вас заблокирован rutor или вдруг Вы не можете на него зайти, то Вы без труда сможете скачать бесплатно и без рекламы последние новинки кино, игр, сериалов и прочего у нас, на Rutor.in. Не нужно использовать прокси, чтобы зайти на рутор, достаточно воспользоваться нашим ресурсом. Все новые фильмы, игры, сериалы, книги и музыка за 2013 и 2014 годы через торрент бесплатно. Скачивайте фильмы в хорошем качестве, игры для пк, xbox, playstation без регистрации. У нас вы найдете новые Зарубежные сериалы и Русские сериалы 2013, 2014, 2015 годов. Оставайтесь с нами, качайте любимые фильмы, игры, сериалы, книги и музыку.