img image001 image001 image001 image001 image001 image001 image001 image001 image001 image001 image001 image001 image001 image001 image001

Planets Sun Sun Sun
Статистика раздачи
Автор: Nickolas3434 | Размер: 745.38 МБ | Добавлен: 27 сен 2015
Раздают: 16    Качают: 1
Скачать торрент
Скачать торрент
Описание торрента

СообщениеДобавлено: 27 сен 2015 

Страна: СССР
Производство: Рижская киностудия
Жанр: драма, военный
Год выпуска: 1985
Продолжительность: 01:25:38
Перевод: Не требуется
Cубтитры: нет
Оригинальная аудиодорожка: русский
Режиссер: Янис Стрейч
В ролях:
Инара Слуцка, Нина Ильина, Елена Скороходова, Елена Казаринова, Наталья Заболотная, Анатолий Лукьяненко, Игорь Чернявский, Бесарион (Бесо) Хидешели, Манана Цховребова...
Полный список актёров
Описание:
Военная переводчица Астра Леиня получает разрешение служить в той же дивизии, в которой воюет ее жених. И теперь, подвергаясь смертельной опасности, пешком и на попутных машинах, она пробирается вдоль линии фронта и становится свидетельницей драматических событий войны и возрождающегося мира.





Источник: DVB
Качество видео: SATRip
Формат видео: AVI
Видео: 688x304 (2,25:1), 25 fps, XviD ~ 1015 kbps avg, 0.194 bit/pixel
Аудио: 48 kHz, Dolby Digital AC3 2.0, 192 kbps
Раздача от:
Общее
Полное имя : Svidanie.na.Mlechnom puti.1985.SATRip_[New-team]_by_AVP_Studio.avi
Формат : AVI
Формат/Информация : Audio Video Interleave
Размер файла : 745 Мбайт
Продолжительность : 1 ч. 25 м.
Общий поток : 1217 Кбит/сек
Программа кодирования : VirtualDubMod 1.5.10.3 | www.virtualdub-fr.org || (build 2550/release)
Библиотека кодирования : VirtualDubMod build 2550/release
Видео
Идентификатор : 0
Формат : MPEG-4 Visual
Профиль формата : Advanced Simple@L5
Параметр BVOP формата : 1
Параметр QPel формата : Нет
Параметр GMC формата : Без точки перехода
Параметр матрицы формата : Выборочная
Идентификатор кодека : XVID
Идентификатор кодека/Подсказка : XviD
Продолжительность : 1 ч. 25 м.
Битрейт : 1015 Кбит/сек
Ширина : 688 пикселей
Высота : 304 пикселя
Соотношение сторон : 2,25:1
Частота кадров : 25,000 кадров/сек
Цветовое пространство : YUV
Субдискретизация насыщенности : 4:2:0
Битовая глубина : 8 бит
Тип развёртки : Прогрессивная
Метод сжатия : С потерями
Бит/(Пиксели*Кадры) : 0.194
Размер потока : 622 Мбайт (83%)
Библиотека кодирования : XviD 73
Аудио
Идентификатор : 1
Формат : AC-3
Формат/Информация : Audio Coding 3
Расширение режима : CM (complete main)
Параметр Endianness формата : Big
Идентификатор кодека : 2000
Продолжительность : 1 ч. 25 м.
Вид битрейта : Постоянный
Битрейт : 192 Кбит/сек
Каналы : 2 канала
Расположение каналов : Front: L R
Частота : 48,0 КГц
Метод сжатия : С потерями
Размер потока : 118 Мбайт (16%)
Выравнивание : Разделение по промежуткам
Продолжительность промежутка : 40 мс. (1,00 видеокадр)
Время предзагрузки промежутка : 500 мс





   Похожие торренты   Торрент   Размер 
В этой теме нет новых непрочитанных сообщений. Свидание на млечном пути (1985) SATRip-AVC от New-Team

22 | 2

744.05 МБ

В этой теме нет новых непрочитанных сообщений. Свидание на млечном пути (1985) SATRip

13 | 3

1.38 ГБ

В этой теме нет новых непрочитанных сообщений. Пути и судьбы (1955) SATRip от New-Team

17 | 3

743.66 МБ

В этой теме нет новых непрочитанных сообщений. Пути и судьбы (1955) SATRip от New-Team

19 | 8

1.09 ГБ

В этой теме нет новых непрочитанных сообщений. Пути и судьбы (1955) SATRip от New-Team

14 | 4

1.09 ГБ

В этой теме нет новых непрочитанных сообщений. Свидание / Рандеву / Rendez-vous (1985) DVDRip-AVC by AndreSweet

278 | 67

1.48 ГБ

В этой теме нет новых непрочитанных сообщений. Свидание / Рандеву / Rendez-vous (1985) DVDRip от ExKinoRay

165 | 3

1.37 ГБ




Вы не можете начинать темы
Вы не можете отвечать на сообщения
Вы не можете редактировать свои сообщения
Вы не можете удалять свои сообщения
Вы не можете добавлять вложения

Перейти:  
Для Мосгорсуда, Роскомнадзора и рекламодателей: mosgorsud-torrent[собачка]yandex.ru
 Вход
ppkBB3cker v.2 © 2008-2014 @ PPK
[ Time : 0.030s | 15 Queries | GZIP : Off ]

Торрент трекер RUTOR.IN, Не можете зайти на rutor.org? Какой новый адрес рутор? Какое зеркало рутор? Не работает rutor.org и зеркала? Тогда наш торрент специально для вас. Rutor.in неофициальное зеркало rutor. В случае если у Вас заблокирован rutor или вдруг Вы не можете на него зайти, то Вы без труда сможете скачать бесплатно и без рекламы последние новинки кино, игр, сериалов и прочего у нас, на Rutor.in. Не нужно использовать прокси, чтобы зайти на рутор, достаточно воспользоваться нашим ресурсом. Все новые фильмы, игры, сериалы, книги и музыка за 2013 и 2014 годы через торрент бесплатно. Скачивайте фильмы в хорошем качестве, игры для пк, xbox, playstation без регистрации. У нас вы найдете новые Зарубежные сериалы и Русские сериалы 2013, 2014, 2015 годов. Оставайтесь с нами, качайте любимые фильмы, игры, сериалы, книги и музыку.