img image001 image001 image001 image001 image001 image001 image001 image001 image001 image001 image001 image001 image001 image001 image001

Planets Sun Sun Sun
Статистика раздачи
Автор: Nickolas3434 | Размер: 744.43 МБ | Добавлен: 27 сен 2015
Раздают: 108    Качают: 3
Скачать торрент
Скачать торрент
Описание торрента

СообщениеДобавлено: 27 сен 2015 

Страна: СССР
Производство: Мосфильм
Жанр: драма, военный
Год выпуска: 1973
Продолжительность: 01:24:32
Перевод: Не требуется
Cубтитры: нет
Оригинальная аудиодорожка: русский
Режиссер: Теодор Вульфович
В ролях:
Игорь Ледогоров, Георгий Куликов, Виктор Шульгин, Павел Махотин, Владимир Осенев, Раиса Куркина, Ольга Гобзева, Зинаида Славина, Игорь Класс, Алексей Преснецов, Юрий Волков, Юрий Волынцев, Шавкат Газиев, Виктор Задубровский, Михаил Кислов, Владимир Кашпур, Виктор Павлов, Борис Кордунов, Борис Руднев, Леонид Кулагин, Роберт Лигерс...
Полный список актёров
Описание:
1941 год. Армия командарма Капитонова принимает на себя удар немецких войск, рвущихся к Ростову. Хорошо зная тактику немецкого генерала Лейнца, Капитонов блестяще проводит операцию, вошедшую в историю войны под названием “Дьяковской обороны”.





Источник: DVB
Качество видео: SATRip
Формат видео: AVI
Видео: 704x304 (2,35:1), 25 fps, XviD ~ 1029 kbps avg, 0.192 bit/pixel
Аудио: 48 kHz, Dolby Digital AC3 2.0, 192 kbps
Раздача от:
Общее
Полное имя : Tovarishh.general.1973.SATRip_[New-team]_by_AVP_Studio.avi
Формат : AVI
Формат/Информация : Audio Video Interleave
Размер файла : 744 Мбайт
Продолжительность : 1 ч. 24 м.
Общий поток : 1231 Кбит/сек
Программа кодирования : VirtualDubMod 1.5.10.3 | www.virtualdub-fr.org || (build 2550/release)
Библиотека кодирования : VirtualDubMod build 2550/release
Видео
Идентификатор : 0
Формат : MPEG-4 Visual
Профиль формата : Advanced Simple@L5
Параметр BVOP формата : 1
Параметр QPel формата : Нет
Параметр GMC формата : Без точки перехода
Параметр матрицы формата : Выборочная
Идентификатор кодека : XVID
Идентификатор кодека/Подсказка : XviD
Продолжительность : 1 ч. 24 м.
Битрейт : 1029 Кбит/сек
Ширина : 704 пикселя
Высота : 304 пикселя
Соотношение сторон : 2,35:1
Частота кадров : 25,000 кадров/сек
Цветовое пространство : YUV
Субдискретизация насыщенности : 4:2:0
Битовая глубина : 8 бит
Тип развёртки : Прогрессивная
Метод сжатия : С потерями
Бит/(Пиксели*Кадры) : 0.192
Размер потока : 622 Мбайт (84%)
Библиотека кодирования : XviD 73
Аудио
Идентификатор : 1
Формат : AC-3
Формат/Информация : Audio Coding 3
Расширение режима : CM (complete main)
Параметр Endianness формата : Big
Идентификатор кодека : 2000
Продолжительность : 1 ч. 24 м.
Вид битрейта : Постоянный
Битрейт : 192 Кбит/сек
Каналы : 2 канала
Расположение каналов : Front: L R
Частота : 48,0 КГц
Метод сжатия : С потерями
Размер потока : 116 Мбайт (16%)
Выравнивание : Разделение по промежуткам
Продолжительность промежутка : 40 мс. (1,00 видеокадр)
Время предзагрузки промежутка : 500 мс





   Похожие торренты   Торрент   Размер 
В этой теме нет новых непрочитанных сообщений. Товарищ генерал (1973) SATRip-AVC от New-Team

101 | 9

744.2 МБ

В этой теме нет новых непрочитанных сообщений. Мой лучший друг, генерал Василий, сын Иосифа (1991) SATRip от New-Team

479 | 56

1.46 ГБ

В этой теме нет новых непрочитанных сообщений. Специальный корреспондент. Товарищ укравдом [эфир от 15.05] (2012) SATRip

1 | 1

1007.01 МБ

В этой теме нет новых непрочитанных сообщений. О тех, кого помню и люблю (1973) SATRip-AVC от New-Team

63 | 7

744.17 МБ

В этой теме нет новых непрочитанных сообщений. О тех, кого помню и люблю (1973) SATRip от New-Team

27 | 11

745.04 МБ

В этой теме нет новых непрочитанных сообщений. Бабушка-генерал (Магарыч) / Суюнчи (1982) SATRip

7 | 26

1.03 ГБ

В этой теме нет новых непрочитанных сообщений. Ко Дню космонавтики. Генерал звездных войн (2009) SATRip

13 | 2

650.29 МБ




Вы не можете начинать темы
Вы не можете отвечать на сообщения
Вы не можете редактировать свои сообщения
Вы не можете удалять свои сообщения
Вы не можете добавлять вложения

Перейти:  
Для Мосгорсуда, Роскомнадзора и рекламодателей: mosgorsud-torrent[собачка]yandex.ru
 Вход
ppkBB3cker v.2 © 2008-2014 @ PPK
[ Time : 0.040s | 15 Queries | GZIP : Off ]

Торрент трекер RUTOR.IN, Не можете зайти на rutor.org? Какой новый адрес рутор? Какое зеркало рутор? Не работает rutor.org и зеркала? Тогда наш торрент специально для вас. Rutor.in неофициальное зеркало rutor. В случае если у Вас заблокирован rutor или вдруг Вы не можете на него зайти, то Вы без труда сможете скачать бесплатно и без рекламы последние новинки кино, игр, сериалов и прочего у нас, на Rutor.in. Не нужно использовать прокси, чтобы зайти на рутор, достаточно воспользоваться нашим ресурсом. Все новые фильмы, игры, сериалы, книги и музыка за 2013 и 2014 годы через торрент бесплатно. Скачивайте фильмы в хорошем качестве, игры для пк, xbox, playstation без регистрации. У нас вы найдете новые Зарубежные сериалы и Русские сериалы 2013, 2014, 2015 годов. Оставайтесь с нами, качайте любимые фильмы, игры, сериалы, книги и музыку.