img image001 image001 image001 image001 image001 image001 image001 image001 image001 image001 image001 image001 image001 image001 image001

Planets Sun Sun Sun
Статистика раздачи
Автор: Nickolas3434 | Размер: 745.54 МБ | Добавлен: 26 сен 2015, 19:36
Раздают: 14    Качают: 13
Скачать торрент
Скачать торрент
Описание торрента

СообщениеДобавлено: 26 сен 2015, 19:36 

Страна: СССР
Производство: Мосфильм
Жанр: драма, военный
Год выпуска: 1986
Продолжительность: 01:12:55
Перевод: Не требуется
Cубтитры: нет
Оригинальная аудиодорожка: русский
Режиссер: Дмитрий Салынский
В ролях:
Александр Филиппенко, Андрей Болтнев, Ольга Остроумова, Василий Мищенко, Василий Фунтиков, Ирина Шмелёва, Григорий Кочержинский, Алексей Золотницкий, Евгений Шмаров, Светлана Тормахова, Алевтина Румянцева, Яна Друзь, Валентина Клягина, Сергей Десницкий, Владимир Земляникин, Надежда Матушкина, Николай Прокопович, Владимир Сизов, В. Куликов...
Полный список актёров
Описание:
Осенью 1941 года в лагере для военнопленных под Киевом появился человек, назвавший себя врачом, и убедил немцев в необходимости организовать за пределами лагеря госпиталь. Прекрасно владеющий немецким, не вызывая никаких сомнений у гитлеровцев, он снабжал оружием тех, кто становился на ноги, и давал возможность им уйти в лес...
По мотивам документального рассказа С.С.Смирнова "Госпиталь в Еремеевке".





Источник: DVB
Качество видео: SATRip
Формат видео: AVI
Видео: 688x288 (2,40:1), 25 fps, XviD ~ 1228 kbps avg, 0.248 bit/pixel
Аудио: 48 kHz, Dolby Digital AC3 2.0, 192 kbps
Раздача от:
Общее
Полное имя : Ya.sdelal.vse,chto.mog.1986.SATRip_[New-team]_by_AVP_Studio.avi
Формат : AVI
Формат/Информация : Audio Video Interleave
Размер файла : 746 Мбайт
Продолжительность : 1 ч. 12 м.
Общий поток : 1430 Кбит/сек
Программа кодирования : VirtualDubMod 1.5.10.3 | www.virtualdub-fr.org || (build 2550/release)
Библиотека кодирования : VirtualDubMod build 2550/release
Видео
Идентификатор : 0
Формат : MPEG-4 Visual
Профиль формата : Advanced Simple@L5
Параметр BVOP формата : 1
Параметр QPel формата : Нет
Параметр GMC формата : Без точки перехода
Параметр матрицы формата : Выборочная
Идентификатор кодека : XVID
Идентификатор кодека/Подсказка : XviD
Продолжительность : 1 ч. 12 м.
Битрейт : 1228 Кбит/сек
Ширина : 688 пикселей
Высота : 288 пикселей
Соотношение сторон : 2,40:1
Частота кадров : 25,000 кадров/сек
Цветовое пространство : YUV
Субдискретизация насыщенности : 4:2:0
Битовая глубина : 8 бит
Тип развёртки : Прогрессивная
Метод сжатия : С потерями
Бит/(Пиксели*Кадры) : 0.248
Размер потока : 640 Мбайт (86%)
Библиотека кодирования : XviD 73
Аудио
Идентификатор : 1
Формат : AC-3
Формат/Информация : Audio Coding 3
Расширение режима : CM (complete main)
Параметр Endianness формата : Big
Идентификатор кодека : 2000
Продолжительность : 1 ч. 12 м.
Вид битрейта : Постоянный
Битрейт : 192 Кбит/сек
Каналы : 2 канала
Расположение каналов : Front: L R
Частота : 48,0 КГц
Метод сжатия : С потерями
Размер потока : 100 Мбайт (13%)
Выравнивание : Разделение по промежуткам
Продолжительность промежутка : 40 мс. (1,00 видеокадр)
Время предзагрузки промежутка : 500 мс





   Похожие торренты   Торрент   Размер 
В этой теме нет новых непрочитанных сообщений. Выкуп (1986) SATRip-AVC от New-Team

24 | 10

743.88 МБ

В этой теме нет новых непрочитанных сообщений. Я сделал все, что мог (1986) SATRip-AVC от New-Team

47 | 11

744.67 МБ

В этой теме нет новых непрочитанных сообщений. Выкуп (1986) SATRip от New-Team

42 | 9

744.93 МБ

В этой теме нет новых непрочитанных сообщений. Человек без паспорта (1986) SATRip от New-Team

57 | 28

745.43 МБ

В этой теме нет новых непрочитанных сообщений. Человек без паспорта (1986) SATRip-AVC от New-Team

50 | 36

1.46 ГБ

В этой теме нет новых непрочитанных сообщений. Тайна Снежной Королевы [01-02 из 02] (1986) SATRip от New-Team

103 | 6

2.19 ГБ

В этой теме нет новых непрочитанных сообщений. Муха / The Fly (1986) HDRip-AVC от New-Team | P

92 | 9

744.89 МБ




Вы не можете начинать темы
Вы не можете отвечать на сообщения
Вы не можете редактировать свои сообщения
Вы не можете удалять свои сообщения
Вы не можете добавлять вложения

Перейти:  
Для Мосгорсуда, Роскомнадзора и рекламодателей: mosgorsud-torrent[собачка]yandex.ru
Настройки
ppkBB3cker v.2 © 2008-2014 @ PPK
[ Time : 0.023s | 16 Queries | GZIP : Off ]
CGP [Extreme] output time : 0.00023s | 0 Queries | GZIP : Off

Торрент трекер RUTOR.IN, Не можете зайти на rutor.org? Какой новый адрес рутор? Какое зеркало рутор? Не работает rutor.org и зеркала? Тогда наш торрент специально для вас. Rutor.in неофициальное зеркало rutor. В случае если у Вас заблокирован rutor или вдруг Вы не можете на него зайти, то Вы без труда сможете скачать бесплатно и без рекламы последние новинки кино, игр, сериалов и прочего у нас, на Rutor.in. Не нужно использовать прокси, чтобы зайти на рутор, достаточно воспользоваться нашим ресурсом. Все новые фильмы, игры, сериалы, книги и музыка за 2013 и 2014 годы через торрент бесплатно. Скачивайте фильмы в хорошем качестве, игры для пк, xbox, playstation без регистрации. У нас вы найдете новые Зарубежные сериалы и Русские сериалы 2013, 2014, 2015 годов. Оставайтесь с нами, качайте любимые фильмы, игры, сериалы, книги и музыку.