img image001 image001 image001 image001 image001 image001 image001 image001 image001 image001 image001 image001 image001 image001 image001

Planets Sun Sun Sun
Статистика раздачи
Автор: Nickolas3434 | Размер: 744.67 МБ | Добавлен: 27 сен 2015
Раздают: 47    Качают: 11
Скачать торрент
Скачать торрент
Описание торрента

СообщениеДобавлено: 27 сен 2015 

Страна: СССР
Производство: Мосфильм
Жанр: драма, военный
Год выпуска: 1986
Продолжительность: 01:12:55
Перевод: Не требуется
Cубтитры: нет
Оригинальная аудиодорожка: русский
Режиссер: Дмитрий Салынский
В ролях:
Александр Филиппенко, Андрей Болтнев, Ольга Остроумова, Василий Мищенко, Василий Фунтиков, Ирина Шмелёва, Григорий Кочержинский, Алексей Золотницкий, Евгений Шмаров, Светлана Тормахова, Алевтина Румянцева, Яна Друзь, Валентина Клягина, Сергей Десницкий, Владимир Земляникин, Надежда Матушкина, Николай Прокопович, Владимир Сизов, В. Куликов...
Полный список актёров
Описание:
Осенью 1941 года в лагере для военнопленных под Киевом появился человек, назвавший себя врачом, и убедил немцев в необходимости организовать за пределами лагеря госпиталь. Прекрасно владеющий немецким, не вызывая никаких сомнений у гитлеровцев, он снабжал оружием тех, кто становился на ноги, и давал возможность им уйти в лес...
По мотивам документального рассказа С.С.Смирнова "Госпиталь в Еремеевке".





Источник: DVB
Качество видео: SATRip-AVC
Формат видео: MKV
Видео: 696->860x366 (2,40:1), 25 fps, H264 ~ 1234 kbps avg, 0.194 bit/pixel
Аудио: 48 kHz, Dolby Digital AC3 2.0, 192 kbps
Раздача от:
Общее
Полное имя : Ya.sdelal.vse,chto.mog.1986.SATRip-AVC_[New-team]_by_AVP_Studio.mkv
Формат : Matroska
Версия формата : Version 2
Размер файла : 745 Мбайт
Продолжительность : 1 ч. 12 м.
Общий поток : 1428 Кбит/сек
Дата кодирования : UTC 2015-09-23 19:24:17
Программа кодирования : mkvmerge v6.1.0 ('Old Devil') built on Mar 4 2013 09:10:42
Библиотека кодирования : libebml v1.3.0 + libmatroska v1.4.0
Видео
Идентификатор : 1
Формат : AVC
Формат/Информация : Advanced Video Codec
Профиль формата : High@L4.1
Параметр CABAC формата : Да
Параметр ReFrames формата : 8 кадров
Идентификатор кодека : V_MPEG4/ISO/AVC
Продолжительность : 1 ч. 12 м.
Битрейт : 1234 Кбит/сек
Ширина : 696 пикселей
Высота : 366 пикселей
Соотношение сторон : 2,35:1
Режим частоты кадров : Постоянный
Частота кадров : 25,000 кадров/сек
Цветовое пространство : YUV
Субдискретизация насыщенности : 4:2:0
Битовая глубина : 8 бит
Тип развёртки : Прогрессивная
Бит/(Пиксели*Кадры) : 0.194
Размер потока : 630 Мбайт (85%)
Библиотека кодирования : x264 core 130 r2273 b3065e6
Настройки программы : cabac=1 / ref=8 / deblock=1:-2:-1 / analyse=0x3:0x113 / me=umh / subme=10 / psy=1 / psy_rd=1.00:0.05 / mixed_ref=1 / me_range=32 / chroma_me=1 / trellis=2 / 8x8dct=1 / cqm=0 / deadzone=21,11 / fast_pskip=0 / chroma_qp_offset=-3 / threads=6 / lookahead_threads=1 / sliced_threads=0 / nr=0 / decimate=0 / interlaced=0 / bluray_compat=0 / constrained_intra=0 / bframes=8 / b_pyramid=2 / b_adapt=2 / b_bias=0 / direct=3 / weightb=1 / open_gop=0 / weightp=2 / keyint=250 / keyint_min=25 / scenecut=40 / intra_refresh=0 / rc=2pass / mbtree=0 / bitrate=1234 / ratetol=1.0 / qcomp=0.60 / qpmin=0 / qpmax=69 / qpstep=4 / cplxblur=20.0 / qblur=0.5 / ip_ratio=1.40 / pb_ratio=1.30 / aq=1:1.00
Default : Да
Forced : Нет
Аудио
Идентификатор : 2
Формат : AC-3
Формат/Информация : Audio Coding 3
Расширение режима : CM (complete main)
Параметр Endianness формата : Big
Идентификатор кодека : A_AC3
Продолжительность : 1 ч. 12 м.
Вид битрейта : Постоянный
Битрейт : 192 Кбит/сек
Каналы : 2 канала
Расположение каналов : Front: L R
Частота : 48,0 КГц
Метод сжатия : С потерями
Размер потока : 100 Мбайт (13%)
Default : Да
Forced : Нет





   Похожие торренты   Торрент   Размер 
В этой теме нет новых непрочитанных сообщений. Выкуп (1986) SATRip от New-Team

42 | 9

744.93 МБ

В этой теме нет новых непрочитанных сообщений. Выкуп (1986) SATRip-AVC от New-Team

24 | 10

743.88 МБ

В этой теме нет новых непрочитанных сообщений. Я сделал все, что мог (1986) SATRip от New-Team

14 | 13

745.54 МБ

В этой теме нет новых непрочитанных сообщений. Человек без паспорта (1986) SATRip-AVC от New-Team

50 | 36

1.46 ГБ

В этой теме нет новых непрочитанных сообщений. Человек без паспорта (1986) SATRip от New-Team

57 | 28

745.43 МБ

В этой теме нет новых непрочитанных сообщений. Тайна Снежной Королевы [01-02 из 02] (1986) SATRip от New-Team

103 | 6

2.19 ГБ

В этой теме нет новых непрочитанных сообщений. Перехват (1986) DVDRip от New-Team

32 | 14

745.09 МБ




Вы не можете начинать темы
Вы не можете отвечать на сообщения
Вы не можете редактировать свои сообщения
Вы не можете удалять свои сообщения
Вы не можете добавлять вложения

Перейти:  
Для Мосгорсуда, Роскомнадзора и рекламодателей: mosgorsud-torrent[собачка]yandex.ru
 Вход
ppkBB3cker v.2 © 2008-2014 @ PPK
[ Time : 0.869s | 15 Queries | GZIP : Off ]

Торрент трекер RUTOR.IN, Не можете зайти на rutor.org? Какой новый адрес рутор? Какое зеркало рутор? Не работает rutor.org и зеркала? Тогда наш торрент специально для вас. Rutor.in неофициальное зеркало rutor. В случае если у Вас заблокирован rutor или вдруг Вы не можете на него зайти, то Вы без труда сможете скачать бесплатно и без рекламы последние новинки кино, игр, сериалов и прочего у нас, на Rutor.in. Не нужно использовать прокси, чтобы зайти на рутор, достаточно воспользоваться нашим ресурсом. Все новые фильмы, игры, сериалы, книги и музыка за 2013 и 2014 годы через торрент бесплатно. Скачивайте фильмы в хорошем качестве, игры для пк, xbox, playstation без регистрации. У нас вы найдете новые Зарубежные сериалы и Русские сериалы 2013, 2014, 2015 годов. Оставайтесь с нами, качайте любимые фильмы, игры, сериалы, книги и музыку.