img image001 image001 image001 image001 image001 image001 image001 image001 image001 image001 image001 image001 image001 image001 image001

Planets Sun Sun Sun
Статистика раздачи
Автор: Nickolas3434 | Размер: 743.59 МБ | Добавлен: 27 сен 2015
Раздают: 56    Качают: 2
Скачать торрент
Скачать торрент
Описание торрента

СообщениеДобавлено: 27 сен 2015 

Страна: СССР
Производство: Молдова Фильм, ТО «Арта»
Жанр: боевик, драма, военный
Год выпуска: 1978
Продолжительность: 01:28:40
Перевод: Не требуется
Cубтитры: нет
Оригинальная аудиодорожка: русский
Режиссер: Василе Паскару
В ролях:
Эммануил Виторган, Альгимантас Масюлис, Константин Константинов, Ион Шкуря, Валериу Купча, Паул Буткевич, Улдис Лиелдидж, Петр (Петря) Баракчи, Владимир Мсрян, Арнис Лицитис, Евгений Герасимов, Ирина Азер, Алексей Бойко, Юрий Кузьменко, Владимир Шакало, Д. Япунджян, Михаил Миликов, Серджиу Финити, Игорь Стаценко, Вячеслав Кутаков, Борис Зайденберг, Всеволод Гаврилов...
Полный список актёров
Описание:
Остросюжетный рассказ об операции "Крепость", проведенной советским десантом в последний год второй мировой войны по спасению группы европейских ученых, отказавшихся работать на фашистскую Германию и заключенных в крепость на одном из островов Адриатического моря.
По мотивам документального рассказа С.С.Смирнова "Госпиталь в Еремеевке".




Источник: DVD5 R5
Качество видео: DVDRip
Формат видео: AVI
Видео: 688x288 (2,40:1), 25 fps, XviD ~ 971 kbps avg, 0.196 bit/pixel
Аудио: 48 kHz, Dolby Digital AC3 2.0, 192 kbps
Раздача от:
Общее
Полное имя : Krepost.1978.DVDRip_[New-team]_by_AVP_Studio.avi
Формат : AVI
Формат/Информация : Audio Video Interleave
Размер файла : 744 Мбайт
Продолжительность : 1 ч. 28 м.
Общий поток : 1173 Кбит/сек
Программа кодирования : VirtualDubMod 1.5.10.3 | www.virtualdub-fr.org || (build 2550/release)
Библиотека кодирования : VirtualDubMod build 2550/release
Видео
Идентификатор : 0
Формат : MPEG-4 Visual
Профиль формата : Advanced Simple@L5
Параметр BVOP формата : 1
Параметр QPel формата : Нет
Параметр GMC формата : Без точки перехода
Параметр матрицы формата : Выборочная
Идентификатор кодека : XVID
Идентификатор кодека/Подсказка : XviD
Продолжительность : 1 ч. 28 м.
Битрейт : 971 Кбит/сек
Ширина : 688 пикселей
Высота : 288 пикселей
Соотношение сторон : 2,40:1
Частота кадров : 25,000 кадров/сек
Цветовое пространство : YUV
Субдискретизация насыщенности : 4:2:0
Битовая глубина : 8 бит
Тип развёртки : Прогрессивная
Метод сжатия : С потерями
Бит/(Пиксели*Кадры) : 0.196
Размер потока : 616 Мбайт (83%)
Библиотека кодирования : XviD 73
Аудио
Идентификатор : 1
Формат : AC-3
Формат/Информация : Audio Coding 3
Расширение режима : CM (complete main)
Параметр Endianness формата : Big
Идентификатор кодека : 2000
Продолжительность : 1 ч. 28 м.
Вид битрейта : Постоянный
Битрейт : 192 Кбит/сек
Каналы : 2 канала
Расположение каналов : Front: L R
Частота : 48,0 КГц
Метод сжатия : С потерями
Размер потока : 122 Мбайт (16%)
Выравнивание : Разделение по промежуткам
Продолжительность промежутка : 40 мс. (1,00 видеокадр)
Время предзагрузки промежутка : 500 мс





   Похожие торренты   Торрент   Размер 
В этой теме нет новых непрочитанных сообщений. Крепость (1978) DVDRip-AVC от New-Team

39 | 6

744.39 МБ

В этой теме нет новых непрочитанных сообщений. Крепость (1978) DVDRip от Кинорадиомагия

126 | 27

1.37 ГБ

В этой теме нет новых непрочитанных сообщений. Крепость над Бугом / Брестская крепость (2011) SATRip от AND01AND

2 | 3

359.85 МБ

В этой теме нет новых непрочитанных сообщений. 31 июня (1978) DVDRip-AVC от New-Team

113 | 16

2.19 ГБ

В этой теме нет новых непрочитанных сообщений. Кузнечик (1978) DVDRip от New-Team

35 | 4

743.72 МБ

В этой теме нет новых непрочитанных сообщений. Кузнечик (1978) DVDRip-AVC от New-Team

19 | 6

1.46 ГБ

В этой теме нет новых непрочитанных сообщений. 31 июня (1978) DVDRip от New-Team

55 | 9

2.19 ГБ




Вы не можете начинать темы
Вы не можете отвечать на сообщения
Вы не можете редактировать свои сообщения
Вы не можете удалять свои сообщения
Вы не можете добавлять вложения

Перейти:  
Для Мосгорсуда, Роскомнадзора и рекламодателей: mosgorsud-torrent[собачка]yandex.ru
 Вход
ppkBB3cker v.2 © 2008-2014 @ PPK
[ Time : 12.157s | 15 Queries | GZIP : Off ]
CGP output time : 0.018s | 7 Queries | GZIP : Off

Торрент трекер RUTOR.IN, Не можете зайти на rutor.org? Какой новый адрес рутор? Какое зеркало рутор? Не работает rutor.org и зеркала? Тогда наш торрент специально для вас. Rutor.in неофициальное зеркало rutor. В случае если у Вас заблокирован rutor или вдруг Вы не можете на него зайти, то Вы без труда сможете скачать бесплатно и без рекламы последние новинки кино, игр, сериалов и прочего у нас, на Rutor.in. Не нужно использовать прокси, чтобы зайти на рутор, достаточно воспользоваться нашим ресурсом. Все новые фильмы, игры, сериалы, книги и музыка за 2013 и 2014 годы через торрент бесплатно. Скачивайте фильмы в хорошем качестве, игры для пк, xbox, playstation без регистрации. У нас вы найдете новые Зарубежные сериалы и Русские сериалы 2013, 2014, 2015 годов. Оставайтесь с нами, качайте любимые фильмы, игры, сериалы, книги и музыку.