img image001 image001 image001 image001 image001 image001 image001 image001 image001 image001 image001 image001 image001 image001 image001

Planets Sun Sun Sun
Статистика раздачи
Автор: Nickolas3434 | Размер: 3.31 ГБ | Добавлен: 27 сен 2015
Раздают: 261    Качают: 15
Скачать торрент
Скачать торрент
Описание торрента

СообщениеДобавлено: 27 сен 2015 


Информация о фильме
Название: Белый Бим Чёрное ухо
Год выхода: 1976
Жанр: Драма
Режиссер: Станислав Ростоцкий
В ролях: Вячеслав Тихонов, Геннадий Кочкожаров, Вася Воробьёв, Михаил Зимин, Римма Мануковская, Михаил Дадыко, Валентина Владимирова, Иван Рыжов, Ирина Шевчук, Анатолий Баранцев, Любовь Соколова, Мария Скворцова, Алексей Миронов, Раиса Рязанова
О фильме: По одноименной повести Гавриила Троепольского. Это трогательная история об охотничьей собаке, всем сердцем преданной своему хозяину, пожилому писателю. Однажды фронтовик Иван Иванович тяжело заболел (после войны давали о себе знать старые раны). Кроме верного Бима у него никого не было. Когда Ивана Ивановича увезли в больницу, для пса начались странствия по чужим домам и незнакомым семьям. Много страданий выпало на долю Бима, не подозревавшего об истинной сути человеческой природы. Но среди разных людей, повстречавших пса, и по мере возможностей пытавшихся помочь ему, были и добрые горожане. Почти такие же, как его хозяин…
Страна: СССР
Продолжительность: 2 x ~ 01:27:00
Перевод: не требуется
Файл
Кодек: x264
Качество: SATRip-AVC
Видео: MPEG-4 AVC, ~ 2500 Кбит/с, 688x372@734x372
Звук: AC3, 2 ch, 256 Кбит/с

raw [info]: 688x372p 16:15 @ 25/1 fps (cfr)
x264 [info]: using SAR=16/15
x264 [info]: using cpu capabilities: MMX2 SSE2Fast SSSE3 SSE4.2 AVX
x264 [info]: profile High, level 4.1
x264 [info]: frame I:858 Avg QP:17.30 size: 56249
x264 [info]: frame P:35194 Avg QP:20.50 size: 27189
x264 [info]: frame B:98943 Avg QP:22.78 size: 7408
======================================================================================================
Общее
Уникальный идентификатор : 192355302110127553547891857948002502630 (0x90B6489BF24E01B1A6273FA4B61847E6)
Полное имя : R:МОИ РИПЫБелый Бим Черное ухо_1976-SATRip-AVCБим-1.mkv
Формат : Matroska
Версия формата : Version 2
Размер файла : 1,78 Гбайт
Продолжительность : 1 ч. 29 м.
Общий поток : 2833 Кбит/сек
Дата кодирования : UTC 2015-09-24 14:48:53
Программа кодирования : mkvmerge v5.8.0 ('No Sleep / Pillow') built on Sep 2 2012 15:37:04
Библиотека кодирования : libebml v1.2.3 + libmatroska v1.3.0
Видео
Идентификатор : 1
Формат : AVC
Формат/Информация : Advanced Video Codec
Профиль формата : High@L4.1
Параметр CABAC формата : Да
Параметр ReFrames формата : 15 кадров
Идентификатор кодека : V_MPEG4/ISO/AVC
Продолжительность : 1 ч. 29 м.
Битрейт : 2575 Кбит/сек
Ширина : 688 пикселей
Высота : 372 пикселя
Соотношение сторон : 1,973
Режим частоты кадров : Постоянный
Частота кадров : 25,000 кадров/сек
Цветовое пространство : YUV
Субдискретизация насыщенности : 4:2:0
Битовая глубина : 8 бит
Тип развёртки : Прогрессивная
Бит/(Пиксели*Кадры) : 0.402
Размер потока : 1,58 Гбайт (89%)
Библиотека кодирования : x264 core 146 r2538 121396c
Настройки программы : cabac=1 / ref=15 / deblock=1:-2:-2 / analyse=0x3:0x133 / me=umh / subme=10 / psy=1 / psy_rd=1.05:0.10 / mixed_ref=1 / me_range=32 / chroma_me=1 / trellis=2 / 8x8dct=1 / cqm=0 / deadzone=21,11 / fast_pskip=0 / chroma_qp_offset=-3 / threads=12 / lookahead_threads=2 / sliced_threads=0 / nr=0 / decimate=0 / interlaced=0 / bluray_compat=0 / constrained_intra=0 / bframes=7 / b_pyramid=2 / b_adapt=2 / b_bias=0 / direct=3 / weightb=1 / open_gop=0 / weightp=2 / keyint=250 / keyint_min=25 / scenecut=40 / intra_refresh=0 / rc=2pass / mbtree=0 / bitrate=2575 / ratetol=1.0 / qcomp=0.60 / qpmin=0 / qpmax=39 / qpstep=4 / cplxblur=20.0 / qblur=0.5 / ip_ratio=1.40 / pb_ratio=1.30 / aq=1:1.00
Язык : English
Default : Да
Forced : Нет
Цветовой диапазон : Limited
Основные цвета : BT.601 PAL
Характеристики трансфера : BT.470 System B, BT.470 System G
Коэффициенты матрицы : BT.601
Аудио
Идентификатор : 2
Формат : AC-3
Формат/Информация : Audio Coding 3
Расширение режима : CM (complete main)
Параметр Endianness формата : Big
Идентификатор кодека : A_AC3
Продолжительность : 1 ч. 29 м.
Вид битрейта : Постоянный
Битрейт : 256 Кбит/сек
Каналы : 2 канала
Расположение каналов : Front: L R
Частота : 48,0 КГц
Битовая глубина : 16 бит
Метод сжатия : С потерями
Размер потока : 165 Мбайт (9%)
Язык : Russian
Default : Да
Forced : Нет

Релиз от:
Автор релиза:



   Похожие торренты   Торрент   Размер 
В этой теме нет новых непрочитанных сообщений. Белый Бим Черное ухо (1976) 2хDVD5

4 | 4

7.99 ГБ

В этой теме нет новых непрочитанных сообщений. Белый Бим Черное ухо (1976) DVDRip

572 | 59

1.36 ГБ

В этой теме нет новых непрочитанных сообщений. Белый Бим Чёрное ухо (1976) DVDRip-AVC от fandora

15 | 11

4.09 ГБ

В этой теме нет новых непрочитанных сообщений. Белый Бим Черное ухо (1976) DVDRip от KinoZalSat-СССР

36 | 5

2.72 ГБ

В этой теме нет новых непрочитанных сообщений. Белый охотник, черное сердце / White Hunter Black Heart (1990) DVDRip-AVC от ExKinoRay | P

46 | 10

2.54 ГБ

В этой теме нет новых непрочитанных сообщений. Белый Бим Черное ухо (1971) MP3

10 | 2

97.33 МБ

В этой теме нет новых непрочитанных сообщений. Белый охотник, черное сердце / White Hunter Black Heart (1990) DVDRip - Generalfilm

5 | 7

1.46 ГБ




Вы не можете начинать темы
Вы не можете отвечать на сообщения
Вы не можете редактировать свои сообщения
Вы не можете удалять свои сообщения
Вы не можете добавлять вложения

Перейти:  
Для Мосгорсуда, Роскомнадзора и рекламодателей: mosgorsud-torrent[собачка]yandex.ru
 Вход
ppkBB3cker v.2 © 2008-2014 @ PPK
[ Time : 0.519s | 16 Queries | GZIP : Off ]

Торрент трекер RUTOR.IN, Не можете зайти на rutor.org? Какой новый адрес рутор? Какое зеркало рутор? Не работает rutor.org и зеркала? Тогда наш торрент специально для вас. Rutor.in неофициальное зеркало rutor. В случае если у Вас заблокирован rutor или вдруг Вы не можете на него зайти, то Вы без труда сможете скачать бесплатно и без рекламы последние новинки кино, игр, сериалов и прочего у нас, на Rutor.in. Не нужно использовать прокси, чтобы зайти на рутор, достаточно воспользоваться нашим ресурсом. Все новые фильмы, игры, сериалы, книги и музыка за 2013 и 2014 годы через торрент бесплатно. Скачивайте фильмы в хорошем качестве, игры для пк, xbox, playstation без регистрации. У нас вы найдете новые Зарубежные сериалы и Русские сериалы 2013, 2014, 2015 годов. Оставайтесь с нами, качайте любимые фильмы, игры, сериалы, книги и музыку.
cron