img image001 image001 image001 image001 image001 image001 image001 image001 image001 image001 image001 image001 image001 image001 image001

Planets Sun Sun Sun
Статистика раздачи
Автор: Nickolas3434 | Размер: 745.29 МБ | Добавлен: 27 сен 2015
Раздают: 63    Качают: 5
Скачать торрент
Скачать торрент
Описание торрента

СообщениеДобавлено: 27 сен 2015 


Информация о фильме
Название: Три женщины и мужчина
Год выхода: 1998
Жанр: Комедия, мелодрама
Режиссер: Виталий Дудин
В ролях: Александр Песков, Евгения Глушенко, Нина Усатова, Юлия Полубинская, Виктор Мережко, Ростислав Янковский, Игорь Забара, Светлана Никифорова, Юрий Бердников, Юрий Болохов, Дарья Забелина, Виталий Рогачевский
О фильме:
В Россию к своей двоюродной сестре приезжает дама, долгие годы прожившая в Париже. Обе женщины немолоды — им под пятьдесят, и обе влюблены в молодого парикмахера. Вскоре у них появляется и юная соперница. И теперь услужливый авантюрист вынужден «водить за нос» уже троих воздыхательниц…

Страна: Беларусь
Продолжительность: 01:26:09
Перевод: Не требуется
Файл
Кодек: XviD
Качество: DVDRip
Видео: 512x384 (1.33:1), 25 fps, XviD build 73 ~1071 kbps avg, 0.22 bit/pixel
Звук: 48 kHz, MPEG Layer 3, 2 ch, ~128.00 kbps avg
Субтитры: Отсутствует
Семпл
General
Complete name : D:Изготовление риповTri zenchini i muzchina (1998) DVDrip by shkiper.avi
Format : AVI
Format/Info : Audio Video Interleave
File size : 745 MiB
Duration : 1h 26mn
Overall bit rate : 1 210 Kbps
Writing application : VirtualDubMod 1.5.10.3 | www.virtualdub-fr.org || (build 2550/release)
Writing library : VirtualDubMod build 2550/release
Video
ID : 0
Format : MPEG-4 Visual
Format profile : Advanced Simple@L5
Format settings, BVOP : 1
Format settings, QPel : No
Format settings, GMC : No warppoints
Format settings, Matrix : Custom
Codec ID : XVID
Codec ID/Hint : XviD
Duration : 1h 26mn
Bit rate : 1 072 Kbps
Width : 512 pixels
Height : 384 pixels
Display aspect ratio : 4:3
Frame rate : 25.000 fps
Color space : YUV
Chroma subsampling : 4:2:0
Bit depth : 8 bits
Scan type : Progressive
Compression mode : Lossy
Bits/(Pixel*Frame) : 0.218
Stream size : 660 MiB (89%)
Writing library : XviD 73
Audio
ID : 1
Format : MPEG Audio
Format version : Version 1
Format profile : Layer 3
Mode : Joint stereo
Mode extension : MS Stereo
Codec ID : 55
Codec ID/Hint : MP3
Duration : 1h 26mn
Bit rate mode : Constant
Bit rate : 128 Kbps
Channel(s) : 2 channels
Sampling rate : 48.0 KHz
Compression mode : Lossy
Stream size : 78.9 MiB (11%)
Alignment : Aligned on interleaves
Interleave, duration : 40 ms (1.00 video frame)
Interleave, preload duration : 504 ms
Writing library : LAME3.99r
Encoding settings : -m j -V 4 -q 2 -lowpass 17 -b 128

Релиз от:



   Похожие торренты   Торрент   Размер 
В этой теме нет новых непрочитанных сообщений. Три женщины и мужчина (1998) DVDRip

43 | 3

1.46 ГБ

В этой теме нет новых непрочитанных сообщений. Три женщины и мужчина (1998) DVDRip от Киномагия

5 | 3

1.37 ГБ

В этой теме нет новых непрочитанных сообщений. Три женщины и мужчина (1998) DVD5

8 | 4

4.36 ГБ

В этой теме нет новых непрочитанных сообщений. Мужчина как женщина / l'homme est une femme comme les autres (1998) DVDRip

13 | 2

1.46 ГБ

В этой теме нет новых непрочитанных сообщений. Женщины за решёткой 3: Проклятое ущелье / Chained Heat III: Hell Mountain (1998) DVDRip | L1

34 | 20

1005.3 МБ

В этой теме нет новых непрочитанных сообщений. Она - мужчина / She's the Man (2006) DVDRip

148 | 8

1.46 ГБ

В этой теме нет новых непрочитанных сообщений. Кубанцы (1939) DVDRip от Шкипер

19 | 11

744.17 МБ




Вы не можете начинать темы
Вы не можете отвечать на сообщения
Вы не можете редактировать свои сообщения
Вы не можете удалять свои сообщения
Вы не можете добавлять вложения

Перейти:  
Для Мосгорсуда, Роскомнадзора и рекламодателей: mosgorsud-torrent[собачка]yandex.ru
 Вход
ppkBB3cker v.2 © 2008-2014 @ PPK
[ Time : 0.040s | 15 Queries | GZIP : Off ]

Торрент трекер RUTOR.IN, Не можете зайти на rutor.org? Какой новый адрес рутор? Какое зеркало рутор? Не работает rutor.org и зеркала? Тогда наш торрент специально для вас. Rutor.in неофициальное зеркало rutor. В случае если у Вас заблокирован rutor или вдруг Вы не можете на него зайти, то Вы без труда сможете скачать бесплатно и без рекламы последние новинки кино, игр, сериалов и прочего у нас, на Rutor.in. Не нужно использовать прокси, чтобы зайти на рутор, достаточно воспользоваться нашим ресурсом. Все новые фильмы, игры, сериалы, книги и музыка за 2013 и 2014 годы через торрент бесплатно. Скачивайте фильмы в хорошем качестве, игры для пк, xbox, playstation без регистрации. У нас вы найдете новые Зарубежные сериалы и Русские сериалы 2013, 2014, 2015 годов. Оставайтесь с нами, качайте любимые фильмы, игры, сериалы, книги и музыку.
cron