img image001 image001 image001 image001 image001 image001 image001 image001 image001 image001 image001 image001 image001 image001 image001

Planets Sun Sun Sun
Статистика раздачи
Автор: Nickolas3434 | Размер: 1.46 ГБ | Добавлен: 29 сен 2015
Раздают: 35    Качают: 10
Скачать торрент
Скачать торрент
Описание торрента

СообщениеДобавлено: 29 сен 2015 

Страна: СССР
Производство: Киностудия им. М.Горького
Жанр: драма, мелодрама
Год выпуска: 1977
Продолжительность: 01:29:51
Перевод: Не требуется
Cубтитры: нет
Оригинальная аудиодорожка: русский
Режиссер: Павел Любимов
В ролях:
Елена Цыплакова, Сергей Насибов, Евгения Симонова, Наталья Вилькина, Юрий Соломин, Нина Меньшикова, Елена Фетисенко, Виктор Камаев, Лидия Матасова, Ромуальдас Викшрайтис, Антонина Дмитриева, Виктор Проскурин, Вера Благовидова, Тигран Давыдов, Сергей Бачурский, Екатерина Дурова...
Полный список актёров
Описание:
Окончена школа. Зосе и Гоше уже никто и ничто не помешает любить друг друга. Сообщив Гоше, что у них будет ребенок и поняв, что он испугался, Зося решается на трудную самостоятельную жизнь...





Источник: DVB
Качество видео: SATRip
Формат видео: AVI
Видео: 720x352 (2,045:1), 29,970 fps, XviD ~ 2122 kbps avg, 0.279 bit/pixel
Аудио: 48 kHz, Dolby Digital AC3 2.0, 192 kbps
Раздача от:
Общее
Полное имя : Shkolnyy.vals.1977.SATRip_[New-team]_by_AVP_Studio.avi
Формат : AVI
Формат/Информация : Audio Video Interleave
Размер файла : 1,46 Гбайт
Продолжительность : 1 ч. 29 м.
Общий поток : 2326 Кбит/сек
Программа кодирования : VirtualDubMod 1.5.10.3 | www.virtualdub-fr.org || (build 2550/release)
Библиотека кодирования : VirtualDubMod build 2550/release
Видео
Идентификатор : 0
Формат : MPEG-4 Visual
Профиль формата : Advanced Simple@L5
Параметр BVOP формата : 1
Параметр QPel формата : Нет
Параметр GMC формата : Без точки перехода
Параметр матрицы формата : Выборочная
Идентификатор кодека : XVID
Идентификатор кодека/Подсказка : XviD
Продолжительность : 1 ч. 29 м.
Битрейт : 2122 Кбит/сек
Ширина : 720 пикселей
Высота : 352 пикселя
Соотношение сторон : 2,045
Частота кадров : 29,970 кадров/сек
Цветовое пространство : YUV
Субдискретизация насыщенности : 4:2:0
Битовая глубина : 8 бит
Тип развёртки : Прогрессивная
Метод сжатия : С потерями
Бит/(Пиксели*Кадры) : 0.279
Размер потока : 1,33 Гбайт (91%)
Библиотека кодирования : XviD 73
Аудио
Идентификатор : 1
Формат : AC-3
Формат/Информация : Audio Coding 3
Расширение режима : CM (complete main)
Параметр Endianness формата : Big
Идентификатор кодека : 2000
Продолжительность : 1 ч. 29 м.
Вид битрейта : Постоянный
Битрейт : 192 Кбит/сек
Каналы : 2 канала
Расположение каналов : Front: L R
Частота : 48,0 КГц
Метод сжатия : С потерями
Размер потока : 123 Мбайт (8%)
Выравнивание : Разделение по промежуткам
Продолжительность промежутка : 33 мс. (1,00 видеокадр)
Время предзагрузки промежутка : 500 мс





   Похожие торренты   Торрент   Размер 
В этой теме нет новых непрочитанных сообщений. Школьный вальс (1977) SATRip от New-Team

46 | 9

746.15 МБ

В этой теме нет новых непрочитанных сообщений. Школьный вальс (1977) SATRip-AVC от New-Team

92 | 9

1.46 ГБ

В этой теме нет новых непрочитанных сообщений. Школьный вальс (1978) DVDRip

72 | 16

1.37 ГБ

В этой теме нет новых непрочитанных сообщений. Смертельный вальс / Вальс смерти / Halálkeringö (2010) DVDRip

1 | 2

1021.68 МБ

В этой теме нет новых непрочитанных сообщений. Берега [01-07 из 07] (1977) SATRip-AVC от New-Team

58 | 46

6.6 ГБ

В этой теме нет новых непрочитанных сообщений. Берега [01-07 из 07] (1977) SATRip от New-Team

39 | 27

6.63 ГБ

В этой теме нет новых непрочитанных сообщений. Прокурорская проверка. Школьный наркотик [эфир 13.04] (2011) SATRip

0 | 2

585.33 МБ




Вы не можете начинать темы
Вы не можете отвечать на сообщения
Вы не можете редактировать свои сообщения
Вы не можете удалять свои сообщения
Вы не можете добавлять вложения

Перейти:  
Для Мосгорсуда, Роскомнадзора и рекламодателей: mosgorsud-torrent[собачка]yandex.ru
 Вход
ppkBB3cker v.2 © 2008-2014 @ PPK
[ Time : 2.916s | 15 Queries | GZIP : Off ]

Торрент трекер RUTOR.IN, Не можете зайти на rutor.org? Какой новый адрес рутор? Какое зеркало рутор? Не работает rutor.org и зеркала? Тогда наш торрент специально для вас. Rutor.in неофициальное зеркало rutor. В случае если у Вас заблокирован rutor или вдруг Вы не можете на него зайти, то Вы без труда сможете скачать бесплатно и без рекламы последние новинки кино, игр, сериалов и прочего у нас, на Rutor.in. Не нужно использовать прокси, чтобы зайти на рутор, достаточно воспользоваться нашим ресурсом. Все новые фильмы, игры, сериалы, книги и музыка за 2013 и 2014 годы через торрент бесплатно. Скачивайте фильмы в хорошем качестве, игры для пк, xbox, playstation без регистрации. У нас вы найдете новые Зарубежные сериалы и Русские сериалы 2013, 2014, 2015 годов. Оставайтесь с нами, качайте любимые фильмы, игры, сериалы, книги и музыку.