img image001 image001 image001 image001 image001 image001 image001 image001 image001 image001 image001 image001 image001 image001 image001

Planets Sun Sun Sun
Статистика раздачи
Автор: Nickolas3434 | Размер: 4.23 ГБ | Добавлен: 03 окт 2015
Раздают: 150    Качают: 15
Скачать торрент
Скачать торрент
Описание торрента

СообщениеДобавлено: 03 окт 2015 


Информация о фильме
Название: Хождение по мукам.(Сестры. Восемнадцатый год. Хмурое утро)
Год выхода: 1957-1959
Жанр: Историческая драма, экранизация
Режиссер: Григорий Рошаль
В ролях: Руфина Нифонтова, Нина Веселовская, Вадим Медведев, Николай Гриценко, Майя Булгакова, Виктор Авдюшко, Сергей Яковлев, Павел Винников, Евгений Матвеев, Виктор Шарлахов, Григорий Кириллов, Владлен Давыдов, Владимир Муравьев, Аркадий Трусов, Ефим Копелян, Люсьена Овчинникова, Леонид Пархоменко, Евгений Тетерин, Михаил Козаков, Петр Модников, Александр Смирнов (I), Владимир Сез, Константин Немоляев, Георгий Георгиу, Вячеслав Гостинский, Анатолий Дудоров, Нина Меньшикова, Любовь Соколова, Наталья Кустинская, Нонна Мордюкова, Борис Андреев, Вера Бурлакова, Анатолий Соловьев, Виталий Матвеев, Владимир Белокуров, Владимир Таскин, Алевтина Румянцева, Зоя Василькова
О фильме: Трилогия "Хождение по мукам" - одно из самых значительных произведений А.Н.Толстого, в котором автор показывает жизнь России на рубеже двух эпох. Жизнь главных героев трилогии – сестёр Кати и Даши Булавиных и их возлюбленных Ивана Телегина и Вадима Рощина выпала на трудное время Первой мировой войны, революционных потрясений, интервенции и гражданской войны
Страна: СССР, Мосфильм
Продолжительность: 3 x ~ 01:39:00
Перевод: не требуется
Файл
Кодек: x264
Качество: DVDRip-AVC
Видео: MPEG-4 AVC, ~ 1600 Кбит/с, 702x554@748x554, 702x544@748x544, 702x546@748x546
Звук: AC3, 2 ch, 384 Кбит/с


raw [info]: 702x554p 16:15 @ 25/1 fps (cfr)
x264 [info]: using SAR=16/15
x264 [info]: using cpu capabilities: MMX2 SSE2Fast SSSE3 SSE4.2 AVX
x264 [info]: profile High, level 4.1
x264 [info]: frame I:824 Avg QP:18.87 size: 53434
x264 [info]: frame P:33441 Avg QP:20.53 size: 21144
x264 [info]: frame B:113112 Avg QP:22.53 size: 4290
==========================================================================================================
Общее
Уникальный идентификатор : 189948582784768059306103187209257050891 (0x8EE6C42F606BEE3F9121FD5FBD89630B)
Полное имя : R:МОИ РИПЫХождение по мукам_1957-59-DVDRip-AVC1.Сёстры_1957.mkv
Формат : Matroska
Версия формата : Version 2
Размер файла : 1,42 Гбайт
Продолжительность : 1 ч. 38 м.
Общий поток : 2064 Кбит/сек
Дата кодирования : UTC 2015-10-01 15:36:19
Программа кодирования : mkvmerge v5.8.0 ('No Sleep / Pillow') built on Sep 2 2012 15:37:04
Библиотека кодирования : libebml v1.2.3 + libmatroska v1.3.0
Видео
Идентификатор : 1
Формат : AVC
Формат/Информация : Advanced Video Codec
Профиль формата : High@L4.1
Параметр CABAC формата : Да
Параметр ReFrames формата : 14 кадров
Идентификатор кодека : V_MPEG4/ISO/AVC
Продолжительность : 1 ч. 38 м.
Битрейт : 1638 Кбит/сек
Ширина : 702 пикселя
Высота : 554 пикселя
Соотношение сторон : 4:3
Соотношение сторон в оригинале : 4:3
Режим частоты кадров : Постоянный
Частота кадров : 25,000 кадров/сек
Цветовое пространство : YUV
Субдискретизация насыщенности : 4:2:0
Битовая глубина : 8 бит
Тип развёртки : Прогрессивная
Бит/(Пиксели*Кадры) : 0.169
Размер потока : 1,12 Гбайт (79%)
Библиотека кодирования : x264 core 146 r2538 121396c
Настройки программы : cabac=1 / ref=14 / deblock=1:-2:-2 / analyse=0x3:0x133 / me=umh / subme=10 / psy=1 / psy_rd=1.05:0.10 / mixed_ref=1 / me_range=32 / chroma_me=1 / trellis=2 / 8x8dct=1 / cqm=0 / deadzone=21,11 / fast_pskip=1 / chroma_qp_offset=-3 / threads=12 / lookahead_threads=2 / sliced_threads=0 / nr=0 / decimate=1 / interlaced=0 / bluray_compat=0 / constrained_intra=0 / bframes=8 / b_pyramid=2 / b_adapt=2 / b_bias=0 / direct=1 / weightb=1 / open_gop=0 / weightp=2 / keyint=250 / keyint_min=25 / scenecut=40 / intra_refresh=0 / rc=crf / mbtree=0 / crf=18.7 / qcomp=0.63 / qpmin=0 / qpmax=39 / qpstep=4 / ip_ratio=1.40 / pb_ratio=1.30 / aq=1:1.00
Язык : English
Default : Да
Forced : Нет
Цветовой диапазон : Limited
Основные цвета : BT.601 PAL
Характеристики трансфера : BT.470 System B, BT.470 System G
Коэффициенты матрицы : BT.601
Аудио
Идентификатор : 2
Формат : AC-3
Формат/Информация : Audio Coding 3
Расширение режима : CM (complete main)
Параметр Endianness формата : Big
Идентификатор кодека : A_AC3
Продолжительность : 1 ч. 38 м.
Вид битрейта : Постоянный
Битрейт : 384 Кбит/сек
Каналы : 2 канала
Расположение каналов : Front: L R
Частота : 48,0 КГц
Метод сжатия : С потерями
Размер потока : 270 Мбайт (19%)
Язык : Russian
Default : Да
Forced

Релиз от:
Автор релиза:



   Похожие торренты   Торрент   Размер 
В этой теме нет новых непрочитанных сообщений. Хождение по мукам. Трилогия (Сестры. Восемнадцатый год. Хмурое утро) (1957-1959) SATRip

73 | 12

4.01 ГБ

В этой теме нет новых непрочитанных сообщений. Хождение по мукам: Сёстры (1957) DVDRip от New-Team

1 | 0

744.89 МБ

В этой теме нет новых непрочитанных сообщений. Хождение по мукам: Сёстры (1957) DVDRip-AVC от New-Team

2 | 0

1.46 ГБ

В этой теме нет новых непрочитанных сообщений. Хождение по мукам: Сёстры (1957) DVDRip от New-Team

0 | 0

1.46 ГБ

В этой теме нет новых непрочитанных сообщений. Хождение по мукам. Сёстры (1957) DVDRip от KinoZalSat

12 | 9

1.36 ГБ

В этой теме нет новых непрочитанных сообщений. Хождение по мукам: Хмурое утро (1959) DVDRip от New-Team

1 | 0

1.46 ГБ

В этой теме нет новых непрочитанных сообщений. Хождение по мукам: Хмурое утро (1959) DVDRip-AVC от New-Team

10 | 3

1.46 ГБ




Вы не можете начинать темы
Вы не можете отвечать на сообщения
Вы не можете редактировать свои сообщения
Вы не можете удалять свои сообщения
Вы не можете добавлять вложения

Перейти:  
Для Мосгорсуда, Роскомнадзора и рекламодателей: mosgorsud-torrent[собачка]yandex.ru
 Вход
ppkBB3cker v.2 © 2008-2014 @ PPK
[ Time : 0.045s | 16 Queries | GZIP : Off ]

cron