img image001 image001 image001 image001 image001 image001 image001 image001 image001 image001 image001 image001 image001 image001 image001

Planets Sun Sun Sun
Статистика раздачи
Автор: Nickolas3434 | Размер: 1.09 ГБ | Добавлен: 03 окт 2015
Раздают: 8    Качают: 3
Скачать торрент
Скачать торрент
Описание торрента

СообщениеДобавлено: 03 окт 2015 

Страна: СССР
Производство: Мосфильм
Жанр: военный
Год выпуска: 1985
Продолжительность: 01:10:56
Перевод: Не требуется
Cубтитры: нет
Оригинальная аудиодорожка: русский
Режиссер: Леон Сааков
В ролях:
Игорь Ливанов, Елена Кондратьева, Анатолий Грачёв, Анатолий Кузнецов, Виктор Корешков, Виктор Чеботарёв, Александр Савостьянов, Юрий Гусев, Любовь Соколова, Лилия Макеева...
Полный список актёров
Описание:
Выпускник ВГИКа, оператор кинохроники Владимир Руднев и его помощница Сашенька, ассистентка режиссера Московской студии кинохроники, ведут съемки боевых действий Красной Армии в годы Великой Отечественной войны. Не все получается сразу - у них еще нет опыта. Из огромного потока хроники, снятой на линии огня, они терпеливо и мужественно создают портрет своего современника.





Источник: DVB
Качество видео: SATRip
Формат видео: AVI
Видео: 688x512 (4:3), 25 fps, XviD ~ 1993 kbps avg, 0.226 bit/pixel
Аудио: 48 kHz, Dolby Digital AC3 2.0, 192 kbps
Раздача от:
Общее
Полное имя : Reportazh.s.linii.ognya.1985.SATRip_[New-team]_by_AVP_Studio.avi
Формат : AVI
Формат/Информация : Audio Video Interleave
Размер файла : 1,09 Гбайт
Продолжительность : 1 ч. 10 м.
Общий поток : 2195 Кбит/сек
Программа кодирования : VirtualDubMod 1.5.10.3 | www.virtualdub-fr.org || (build 2550/release)
Библиотека кодирования : VirtualDubMod build 2550/release
Видео
Идентификатор : 0
Формат : MPEG-4 Visual
Профиль формата : Advanced Simple@L5
Параметр BVOP формата : 1
Параметр QPel формата : Нет
Параметр GMC формата : Без точки перехода
Параметр матрицы формата : Выборочная
Идентификатор кодека : XVID
Идентификатор кодека/Подсказка : XviD
Продолжительность : 1 ч. 10 м.
Битрейт : 1993 Кбит/сек
Ширина : 688 пикселей
Высота : 512 пикселей
Соотношение сторон : 4:3
Частота кадров : 25,000 кадров/сек
Цветовое пространство : YUV
Субдискретизация насыщенности : 4:2:0
Битовая глубина : 8 бит
Тип развёртки : Прогрессивная
Метод сжатия : С потерями
Бит/(Пиксели*Кадры) : 0.226
Размер потока : 1011 Мбайт (91%)
Библиотека кодирования : XviD 73
Аудио
Идентификатор : 1
Формат : AC-3
Формат/Информация : Audio Coding 3
Расширение режима : CM (complete main)
Параметр Endianness формата : Big
Идентификатор кодека : 2000
Продолжительность : 1 ч. 10 м.
Вид битрейта : Постоянный
Битрейт : 192 Кбит/сек
Каналы : 2 канала
Расположение каналов : Front: L R
Частота : 48,0 КГц
Метод сжатия : С потерями
Размер потока : 97,4 Мбайт (9%)
Выравнивание : Разделение по промежуткам
Продолжительность промежутка : 40 мс. (1,00 видеокадр)
Время предзагрузки промежутка : 500 мс





   Похожие торренты   Торрент   Размер 
В этой теме нет новых непрочитанных сообщений. Репортаж с линии огня (1985) SATRip от New-Team

9 | 4

743.92 МБ

В этой теме нет новых непрочитанных сообщений. Репортаж с линии огня (1985) SATRip-AVC от New-Team

16 | 8

1.09 ГБ

В этой теме нет новых непрочитанных сообщений. На линии огня / In The Line Of Fire (1993) BDRip 720p от Element team

3 | 3

2.19 ГБ

В этой теме нет новых непрочитанных сообщений. Маршал Баграмян.Любовь на линии огня (2010) SATRip

7 | 7

500.12 МБ

В этой теме нет новых непрочитанных сообщений. Особая статья. Украина: любовь на линии огня (Эфир от 15.08.2017) [2017, общественно-политическое ток-шоу, SATRip]

28 | 2

993.86 МБ

В этой теме нет новых непрочитанных сообщений. На линии огня / In the Line of Fire (1993) BDRip-AVC | D, P, А

244 | 3

1.46 ГБ

В этой теме нет новых непрочитанных сообщений. На линии огня / In The Line Of Fire (1993) Blu-ray CEE 1080p | D

8 | 8

34.73 ГБ




Вы не можете начинать темы
Вы не можете отвечать на сообщения
Вы не можете редактировать свои сообщения
Вы не можете удалять свои сообщения
Вы не можете добавлять вложения

Перейти:  
Для Мосгорсуда, Роскомнадзора и рекламодателей: mosgorsud-torrent[собачка]yandex.ru
 Вход
ppkBB3cker v.2 © 2008-2014 @ PPK
[ Time : 0.042s | 16 Queries | GZIP : Off ]

cron