img image001 image001 image001 image001 image001 image001 image001 image001 image001 image001 image001 image001 image001 image001 image001

Planets Sun Sun Sun
Статистика раздачи
Автор: Nickolas3434 | Размер: 743.92 МБ | Добавлен: 03 окт 2015
Раздают: 13    Качают: 5
Скачать торрент
Скачать торрент
Описание торрента

СообщениеДобавлено: 03 окт 2015 

Страна: СССР
Производство: Мосфильм
Жанр: военный
Год выпуска: 1985
Продолжительность: 01:10:56
Перевод: Не требуется
Cубтитры: нет
Оригинальная аудиодорожка: русский
Режиссер: Леон Сааков
В ролях:
Игорь Ливанов, Елена Кондратьева, Анатолий Грачёв, Анатолий Кузнецов, Виктор Корешков, Виктор Чеботарёв, Александр Савостьянов, Юрий Гусев, Любовь Соколова, Лилия Макеева...
Полный список актёров
Описание:
Выпускник ВГИКа, оператор кинохроники Владимир Руднев и его помощница Сашенька, ассистентка режиссера Московской студии кинохроники, ведут съемки боевых действий Красной Армии в годы Великой Отечественной войны. Не все получается сразу - у них еще нет опыта. Из огромного потока хроники, снятой на линии огня, они терпеливо и мужественно создают портрет своего современника.





Источник: DVB
Качество видео: SATRip
Формат видео: AVI
Видео: 688x512 (4:3), 25 fps, XviD ~ 1329 kbps avg, 0.151 bit/pixel
Аудио: 48 kHz, MP3 2.0, 128 kbps
Раздача от:
Общее
Полное имя : Reportazh.s.linii.ognya.1985.SATRip-745_[New-team]_by_AVP_Studio.avi
Формат : AVI
Формат/Информация : Audio Video Interleave
Размер файла : 744 Мбайт
Продолжительность : 1 ч. 10 м.
Общий поток : 1466 Кбит/сек
Программа кодирования : VirtualDubMod 1.5.10.3 | www.virtualdub-fr.org || (build 2550/release)
Библиотека кодирования : VirtualDubMod build 2550/release
Видео
Идентификатор : 0
Формат : MPEG-4 Visual
Профиль формата : Advanced Simple@L5
Параметр BVOP формата : 1
Параметр QPel формата : Нет
Параметр GMC формата : Без точки перехода
Параметр матрицы формата : Выборочная
Идентификатор кодека : XVID
Идентификатор кодека/Подсказка : XviD
Продолжительность : 1 ч. 10 м.
Битрейт : 1329 Кбит/сек
Ширина : 688 пикселей
Высота : 512 пикселей
Соотношение сторон : 4:3
Частота кадров : 25,000 кадров/сек
Цветовое пространство : YUV
Субдискретизация насыщенности : 4:2:0
Битовая глубина : 8 бит
Тип развёртки : Прогрессивная
Метод сжатия : С потерями
Бит/(Пиксели*Кадры) : 0.151
Размер потока : 674 Мбайт (91%)
Библиотека кодирования : XviD 73
Аудио
Идентификатор : 1
Формат : MPEG Audio
Версия формата : Version 1
Профиль формата : Layer 3
Идентификатор кодека : 55
Идентификатор кодека/Подсказка : MP3
Продолжительность : 1 ч. 10 м.
Вид битрейта : Постоянный
Битрейт : 128 Кбит/сек
Каналы : 2 канала
Частота : 48,0 КГц
Метод сжатия : С потерями
Размер потока : 64,9 Мбайт (9%)
Выравнивание : Соединение по промежуткам
Продолжительность промежутка : 40 мс. (1,00 видеокадр)
Время предзагрузки промежутка : 504 мс.
Библиотека кодирования : LAME3.99r
Настройки программы : -m s -V 4 -q 2 -lowpass 17 -b 128





   Похожие торренты   Торрент   Размер 
В этой теме нет новых непрочитанных сообщений. Репортаж с линии огня (1985) SATRip от New-Team

15 | 3

1.09 ГБ

В этой теме нет новых непрочитанных сообщений. Репортаж с линии огня (1985) SATRip-AVC от New-Team

30 | 6

1.09 ГБ

В этой теме нет новых непрочитанных сообщений. На линии огня / In The Line Of Fire (1993) BDRip 720p от Element team

3 | 3

2.19 ГБ

В этой теме нет новых непрочитанных сообщений. Маршал Баграмян.Любовь на линии огня (2010) SATRip

7 | 7

500.12 МБ

В этой теме нет новых непрочитанных сообщений. На линии огня / In the Line of Fire (1993) DVD5

0 | 2

4.02 ГБ

В этой теме нет новых непрочитанных сообщений. На линии огня / In The Line Of Fire (1993) Blu-ray CEE 1080p | D

8 | 8

34.73 ГБ

В этой теме нет новых непрочитанных сообщений. На линии огня / In the Line of Fire (1993) BDRip-AVC | D, P, А

244 | 3

1.46 ГБ




Вы не можете начинать темы
Вы не можете отвечать на сообщения
Вы не можете редактировать свои сообщения
Вы не можете удалять свои сообщения
Вы не можете добавлять вложения

Перейти:  
Для Мосгорсуда, Роскомнадзора и рекламодателей: mosgorsud-torrent[собачка]yandex.ru
 Вход
ppkBB3cker v.2 © 2008-2014 @ PPK
[ Time : 0.063s | 16 Queries | GZIP : Off ]

Торрент трекер RUTOR.IN, Не можете зайти на rutor.org? Какой новый адрес рутор? Какое зеркало рутор? Не работает rutor.org и зеркала? Тогда наш торрент специально для вас. Rutor.in неофициальное зеркало rutor. В случае если у Вас заблокирован rutor или вдруг Вы не можете на него зайти, то Вы без труда сможете скачать бесплатно и без рекламы последние новинки кино, игр, сериалов и прочего у нас, на Rutor.in. Не нужно использовать прокси, чтобы зайти на рутор, достаточно воспользоваться нашим ресурсом. Все новые фильмы, игры, сериалы, книги и музыка за 2013 и 2014 годы через торрент бесплатно. Скачивайте фильмы в хорошем качестве, игры для пк, xbox, playstation без регистрации. У нас вы найдете новые Зарубежные сериалы и Русские сериалы 2013, 2014, 2015 годов. Оставайтесь с нами, качайте любимые фильмы, игры, сериалы, книги и музыку.