img image001 image001 image001 image001 image001 image001 image001 image001 image001 image001 image001 image001 image001 image001 image001

Planets Sun Sun Sun
Статистика раздачи
Автор: Nickolas3434 | Размер: 1.09 ГБ | Добавлен: 03 окт 2015
Раздают: 16    Качают: 3
Скачать торрент
Скачать торрент
Описание торрента

СообщениеДобавлено: 03 окт 2015 

Страна: СССР
Производство: МОСФИЛЬМ
Жанр: боевик, драма, военный
Год выпуска: 1950
Продолжительность: 01:31:48
Перевод: Не требуется
Cубтитры: нет
Оригинальная аудиодорожка: русский
Режиссер: Константин Юдин
В ролях:
Сергей Гурзо (старший), Алексей Грибов, Тамара Чернова, Олег Солюс, Николай Мордвинов, Владимир Дорофеев, Капан Бадыров, Сергей Бобров, Олег Потоцкий, Георгий Гумилевский, Виктор Проклов, Семён Свашенко, Ростислав Плятт, Григорий Шпигель...
Полный список актёров
Описание:
Довоенные годы... Молодой табунщик конного завода Вася Говорухин (Сергей Гурзо) воспитал замечательного коня Буяна, в выдающихся качествах которого сомневается только жестокий тренер Белецкий. Начало войны выявляет истинную сущность Белецкого, который на самом деле был немецким шпионом и готовился передать врагу элитных советских лошадей.
Работники конного завода на оккупированной территории организуют партизанский отряд под руководством секретаря райкома Кожина для действий в тылу врага. Вася Говорухин, которому помогает его верный конь, проявляет храбрость и находчивость, разоблачая шпиона и спасая лучших лошадей от вывоза в Германию…
Фильм снят в редком для советского кино жанре вестерна. Лихо скачет старый тренер Воронов, заворачивая табун, которому грозит падение в пропасть... Говорухин отчаянно борется с негодяем Белецким, сбежавшим из-под охраны... Освобождая Буяна из немецкого "плена", Вася демонстрирует чудеса джигитовки, уходя и отстреливаясь от погони... Удивительно сообразителен Буян: он ложится на землю, чтобы тяжело раненый хозяин мог взобраться на его спину... И наконец, волнующая финальная сцена: Говорухин на верном Буяне догоняет немецкий эшелон и отцепляет от него два вагона с советскими девушками, угоняемыми в неволю...
В пятидесятые годы фильм был рекордсменом кинопроката, мальчишки смотрели его по многу раз, во дворах играли в Васю Говорухина...





Источник: DVD5 R5
Качество видео: DVDRip
Формат видео: AVI
Видео: 688x512 (4:3), 25 fps, XviD ~ 1496 kbps avg, 0.170 bit/pixel
Аудио: 48 kHz, Dolby Digital AC3 2.0, 192 kbps
Раздача от:
Общее
Полное имя : Smelye.lyudi.1950.DVDRip_[New-team]_by_AVP_Studio.avi
Формат : AVI
Формат/Информация : Audio Video Interleave
Размер файла : 1,09 Гбайт
Продолжительность : 1 ч. 31 м.
Общий поток : 1697 Кбит/сек
Программа кодирования : VirtualDubMod 1.5.10.3 | www.virtualdub-fr.org || (build 2550/release)
Библиотека кодирования : VirtualDubMod build 2550/release
Видео
Идентификатор : 0
Формат : MPEG-4 Visual
Профиль формата : Advanced Simple@L5
Параметр BVOP формата : 1
Параметр QPel формата : Нет
Параметр GMC формата : Без точки перехода
Параметр матрицы формата : Выборочная
Идентификатор кодека : XVID
Идентификатор кодека/Подсказка : XviD
Продолжительность : 1 ч. 31 м.
Битрейт : 1496 Кбит/сек
Ширина : 688 пикселей
Высота : 512 пикселей
Соотношение сторон : 4:3
Частота кадров : 25,000 кадров/сек
Цветовое пространство : YUV
Субдискретизация насыщенности : 4:2:0
Битовая глубина : 8 бит
Тип развёртки : Прогрессивная
Метод сжатия : С потерями
Бит/(Пиксели*Кадры) : 0.170
Размер потока : 982 Мбайт (88%)
Библиотека кодирования : XviD 73
Аудио
Идентификатор : 1
Формат : AC-3
Формат/Информация : Audio Coding 3
Расширение режима : CM (complete main)
Параметр Endianness формата : Big
Идентификатор кодека : 2000
Продолжительность : 1 ч. 31 м.
Вид битрейта : Постоянный
Битрейт : 192 Кбит/сек
Каналы : 2 канала
Расположение каналов : Front: L R
Частота : 48,0 КГц
Метод сжатия : С потерями
Размер потока : 126 Мбайт (11%)
Выравнивание : Разделение по промежуткам
Продолжительность промежутка : 40 мс. (1,00 видеокадр)
Время предзагрузки промежутка : 500 мс





   Похожие торренты   Торрент   Размер 
В этой теме нет новых непрочитанных сообщений. Смелые люди (1950) DVDRip-AVC от New-Team

62 | 7

1.09 ГБ

В этой теме нет новых непрочитанных сообщений. Смелые люди (1950) DVDRip от New-Team

28 | 7

745.3 МБ

В этой теме нет новых непрочитанных сообщений. Смелые люди (1950) DVDRip

29 | 6

1.27 ГБ

В этой теме нет новых непрочитанных сообщений. Смелые люди (1950) DVDRip

133 | 23

1.46 ГБ

В этой теме нет новых непрочитанных сообщений. Мусоргский (1950) DVDRip-AVC от New-Team

19 | 0

1.46 ГБ

В этой теме нет новых непрочитанных сообщений. В мирные дни (1950) DVDRip-AVC от New-Team

71 | 4

1.09 ГБ

В этой теме нет новых непрочитанных сообщений. В мирные дни (1950) DVDRip от New-Team

19 | 3

744.93 МБ




Вы не можете начинать темы
Вы не можете отвечать на сообщения
Вы не можете редактировать свои сообщения
Вы не можете удалять свои сообщения
Вы не можете добавлять вложения

Перейти:  
Для Мосгорсуда, Роскомнадзора и рекламодателей: mosgorsud-torrent[собачка]yandex.ru
 Вход
ppkBB3cker v.2 © 2008-2014 @ PPK
[ Time : 1.246s | 18 Queries | GZIP : On ]

Торрент трекер RUTOR.IN, Не можете зайти на rutor.org? Какой новый адрес рутор? Какое зеркало рутор? Не работает rutor.org и зеркала? Тогда наш торрент специально для вас. Rutor.in неофициальное зеркало rutor. В случае если у Вас заблокирован rutor или вдруг Вы не можете на него зайти, то Вы без труда сможете скачать бесплатно и без рекламы последние новинки кино, игр, сериалов и прочего у нас, на Rutor.in. Не нужно использовать прокси, чтобы зайти на рутор, достаточно воспользоваться нашим ресурсом. Все новые фильмы, игры, сериалы, книги и музыка за 2013 и 2014 годы через торрент бесплатно. Скачивайте фильмы в хорошем качестве, игры для пк, xbox, playstation без регистрации. У нас вы найдете новые Зарубежные сериалы и Русские сериалы 2013, 2014, 2015 годов. Оставайтесь с нами, качайте любимые фильмы, игры, сериалы, книги и музыку.
cron