img image001 image001 image001 image001 image001 image001 image001 image001 image001 image001 image001 image001 image001 image001 image001

Planets Sun Sun Sun
Статистика раздачи
Автор: Nickolas3434 | Размер: 2.16 ГБ | Добавлен: 03 окт 2015
Раздают: 199    Качают: 23
Скачать торрент
Скачать торрент
Описание торрента

СообщениеДобавлено: 03 окт 2015 


Информация о фильме
Название: Приступить к ликвидации
Год выхода: 1983
Жанр: ВОВ, драма, экранизация
Режиссер: Борис Григорьев
В ролях: Олег Стриженов, Михаил Жигалов, Василий Лановой, Валерий Войтюк, Георгий Юматов, Надежда Бутырцева, Александр Филиппенко, Ольга Сирина, Владимир Гусев, Леонид Белозорович.
О фильме: Весна 1945 года. Близится к концу Великая Отечественная война. Неспокойно в Западной Белоруссии. Там действует жестокая банда бывшего пособника нацистов Болеслава Крука. Бандиты не жалеют никого, в том числе и женщин, и детей, убивая, грабя и поджигая колхозные угодья. Свои щупальца банда протянула аж до Москвы, где имеет своих доверенных людей, снабжающих их награбленным барахлом.
Раскручивая убийство одного из московских пособников бандитов, начальник отдела по борьбе с бандитизмом подполковник Иван Данилов со своей опергруппой постепенно восстанавливает всю цепочку преступлений, арестовывая, или уничтожая одного за другим членов банды…
Страна: СССР
Продолжительность: 2 x ~ 01:03:40
Перевод: не требуется
Файл
Кодек: x264
Качество: DVDRip-AVC
Видео: MPEG-4 AVC, ~ 1950 Кбит/с, 700x418@746x418
Звук: AC3, 6 ch, 384 Кбит/с

raw [info]: 700x418p 16:15 @ 25/1 fps (cfr)
x264 [info]: using SAR=16/15
x264 [info]: using cpu capabilities: MMX2 SSE2Fast SSSE3 SSE4.2 AVX
x264 [info]: profile High, level 4.1
x264 [info]: frame I:504 Avg QP:18.34 size: 40393
x264 [info]: frame P:21001 Avg QP:20.01 size: 20594
x264 [info]: frame B:73154 Avg QP:21.84 size: 6770
=============================================================================================================
Общее
Уникальный идентификатор : 177302337709956684162563668635146794120 (0x85633029FA95BF81A6EA794FE5BC3488)
Полное имя : R:МОИ РИПЫПриступить к ликвидации_1983-DVDRip-AVCЛиквидация-1.mkv
Формат : Matroska
Версия формата : Version 2
Размер файла : 1,05 Гбайт
Продолжительность : 1 ч. 3 м.
Общий поток : 2389 Кбит/сек
Дата кодирования : UTC 2015-10-02 11:50:46
Программа кодирования : mkvmerge v5.8.0 ('No Sleep / Pillow') built on Sep 2 2012 15:37:04
Библиотека кодирования : libebml v1.2.3 + libmatroska v1.3.0
Видео
Идентификатор : 1
Формат : AVC
Формат/Информация : Advanced Video Codec
Профиль формата : High@L4.1
Параметр CABAC формата : Да
Параметр ReFrames формата : 16 кадров
Идентификатор кодека : V_MPEG4/ISO/AVC
Продолжительность : 1 ч. 3 м.
Битрейт : 1957 Кбит/сек
Ширина : 700 пикселей
Высота : 418 пикселей
Соотношение сторон : 16:9
Соотношение сторон в оригинале : 16:9
Режим частоты кадров : Постоянный
Частота кадров : 25,000 кадров/сек
Цветовое пространство : YUV
Субдискретизация насыщенности : 4:2:0
Битовая глубина : 8 бит
Тип развёртки : Прогрессивная
Бит/(Пиксели*Кадры) : 0.268
Размер потока : 884 Мбайт (82%)
Библиотека кодирования : x264 core 146 r2538 121396c
Настройки программы : cabac=1 / ref=16 / deblock=1:-2:-2 / analyse=0x3:0x133 / me=umh / subme=10 / psy=1 / psy_rd=1.05:0.13 / mixed_ref=1 / me_range=32 / chroma_me=1 / trellis=2 / 8x8dct=1 / cqm=0 / deadzone=21,11 / fast_pskip=0 / chroma_qp_offset=-3 / threads=12 / lookahead_threads=2 / sliced_threads=0 / nr=0 / decimate=0 / interlaced=0 / bluray_compat=0 / constrained_intra=0 / bframes=9 / b_pyramid=2 / b_adapt=2 / b_bias=0 / direct=1 / weightb=1 / open_gop=0 / weightp=2 / keyint=250 / keyint_min=25 / scenecut=40 / intra_refresh=0 / rc=crf / mbtree=0 / crf=18.6 / qcomp=0.63 / qpmin=0 / qpmax=39 / qpstep=4 / ip_ratio=1.40 / pb_ratio=1.30 / aq=1:1.00
Язык : English
Default : Да
Forced : Нет
Цветовой диапазон : Limited
Основные цвета : BT.601 PAL
Характеристики трансфера : BT.470 System B, BT.470 System G
Коэффициенты матрицы : BT.601
Аудио
Идентификатор : 2
Формат : AC-3
Формат/Информация : Audio Coding 3
Расширение режима : CM (complete main)
Параметр Endianness формата : Big
Идентификатор кодека : A_AC3
Продолжительность : 1 ч. 3 м.
Вид битрейта : Постоянный
Битрейт : 384 Кбит/сек
Каналы : 6 каналов
Расположение каналов : Front: L C R, Side: L R, LFE
Частота : 48,0 КГц
Метод сжатия : С потерями
Размер потока : 173 Мбайт (16%)
Язык : Russian
Default : Да
Forced

Релиз от:
Автор релиза:



   Похожие торренты   Торрент   Размер 
В этой теме нет новых непрочитанных сообщений. Приступить к ликвидации (1983) DVDRip

12 | 7

2.19 ГБ

В этой теме нет новых непрочитанных сообщений. Приступить к ликвидации (1983) DVDRip

52 | 12

1.37 ГБ

В этой теме нет новых непрочитанных сообщений. Приступить к ликвидации (1983) DVDRip-AVC от Тorrent-Хzona

52 | 10

1.78 ГБ

В этой теме нет новых непрочитанных сообщений. К расследованию приступить: Версия. Клевета (1986) DVDRip от SergV

10 | 6

4.36 ГБ

В этой теме нет новых непрочитанных сообщений. Код ликвидации / Circadian Rhythm (2005) DVDRip от NovaLan

40 | 6

1.36 ГБ

В этой теме нет новых непрочитанных сообщений. Без свидетелей (1983) DVDRip-AVC от ExKinoRay

91 | 17

1.76 ГБ

В этой теме нет новых непрочитанных сообщений. Небывальщина (1983) DVDRip-AVC от ExKinoRay

179 | 17

1.73 ГБ




Вы не можете начинать темы
Вы не можете отвечать на сообщения
Вы не можете редактировать свои сообщения
Вы не можете удалять свои сообщения
Вы не можете добавлять вложения

Перейти:  
Для Мосгорсуда, Роскомнадзора и рекламодателей: mosgorsud-torrent[собачка]yandex.ru
 Вход
ppkBB3cker v.2 © 2008-2014 @ PPK
[ Time : 0.042s | 14 Queries | GZIP : Off ]

Торрент трекер RUTOR.IN, Не можете зайти на rutor.org? Какой новый адрес рутор? Какое зеркало рутор? Не работает rutor.org и зеркала? Тогда наш торрент специально для вас. Rutor.in неофициальное зеркало rutor. В случае если у Вас заблокирован rutor или вдруг Вы не можете на него зайти, то Вы без труда сможете скачать бесплатно и без рекламы последние новинки кино, игр, сериалов и прочего у нас, на Rutor.in. Не нужно использовать прокси, чтобы зайти на рутор, достаточно воспользоваться нашим ресурсом. Все новые фильмы, игры, сериалы, книги и музыка за 2013 и 2014 годы через торрент бесплатно. Скачивайте фильмы в хорошем качестве, игры для пк, xbox, playstation без регистрации. У нас вы найдете новые Зарубежные сериалы и Русские сериалы 2013, 2014, 2015 годов. Оставайтесь с нами, качайте любимые фильмы, игры, сериалы, книги и музыку.