img image001 image001 image001 image001 image001 image001 image001 image001 image001 image001 image001 image001 image001 image001 image001

Planets Sun Sun Sun
Статистика раздачи
Автор: Nickolas3434 | Размер: 745.53 МБ | Добавлен: 04 окт 2015
Раздают: 40    Качают: 10
Скачать торрент
Скачать торрент
Описание торрента

СообщениеДобавлено: 04 окт 2015 

Страна: СССР
Производство: Мосфильм
Жанр: военный, драма
Год выпуска: 1978
Продолжительность: 01:04:17
Перевод: Не требуется
Cубтитры: нет
Оригинальная аудиодорожка: русский
Режиссер: Евгений Васильев, Рудольф Фрунтов
В ролях:
Георгий Корольчук, Виктор Зозулин, Эммануил Виторган, Лариса Удовиченко, Владимир Носик, Галина Комарова, Александр Пятков, Виктор Шульгин...
Полный список актёров
Описание:
О подвиге врача Ивана Русака, одного из лучших бегунов страны, который во время второй мировой войны, используя тактику бега на длинной дистанции, отвел фашистскую группировку от партизанского лагеря.






Источник: DVB
Качество видео: SATRip
Формат видео: AVI
Видео: 688x272 (2,529:1), 25 fps, XviD ~ 1420 kbps avg, 0.303 bit/pixel
Аудио: 48 kHz, Dolby Digital AC3 2.0, 192 kbps
Раздача от:
Общее
Полное имя : Taktika.bega.na.dlinnuyu.distanciyu.1978.SATRip_[New-team]_by_AVP_Studio.avi
Формат : AVI
Формат/Информация : Audio Video Interleave
Размер файла : 746 Мбайт
Продолжительность : 1 ч. 4 м.
Общий поток : 1622 Кбит/сек
Программа кодирования : VirtualDubMod 1.5.10.3 | www.virtualdub-fr.org || (build 2550/release)
Библиотека кодирования : VirtualDubMod build 2550/release
Видео
Идентификатор : 0
Формат : MPEG-4 Visual
Профиль формата : Advanced Simple@L5
Параметр BVOP формата : 1
Параметр QPel формата : Нет
Параметр GMC формата : Без точки перехода
Параметр матрицы формата : Выборочная
Идентификатор кодека : XVID
Идентификатор кодека/Подсказка : XviD
Продолжительность : 1 ч. 4 м.
Битрейт : 1420 Кбит/сек
Ширина : 688 пикселей
Высота : 272 пикселя
Соотношение сторон : 2,529
Частота кадров : 25,000 кадров/сек
Цветовое пространство : YUV
Субдискретизация насыщенности : 4:2:0
Битовая глубина : 8 бит
Тип развёртки : Прогрессивная
Метод сжатия : С потерями
Бит/(Пиксели*Кадры) : 0.303
Размер потока : 653 Мбайт (88%)
Библиотека кодирования : XviD 73
Аудио
Идентификатор : 1
Формат : AC-3
Формат/Информация : Audio Coding 3
Расширение режима : CM (complete main)
Параметр Endianness формата : Big
Идентификатор кодека : 2000
Продолжительность : 1 ч. 4 м.
Вид битрейта : Постоянный
Битрейт : 192 Кбит/сек
Каналы : 2 канала
Расположение каналов : Front: L R
Частота : 48,0 КГц
Метод сжатия : С потерями
Размер потока : 88,3 Мбайт (12%)
Выравнивание : Разделение по промежуткам
Продолжительность промежутка : 40 мс. (1,00 видеокадр)
Время предзагрузки промежутка : 500 мс





   Похожие торренты   Торрент   Размер 
В этой теме нет новых непрочитанных сообщений. Тактика бега на длинную дистанцию (1978) SATRip-AVC от New-Team

75 | 10

744.7 МБ

В этой теме нет новых непрочитанных сообщений. BBC: Наедине с природой: Крысиные бега / BBC: The Rat RACE [23 из 67] (2004) SATRip от ExKinoRay

32 | 2

541.33 МБ

В этой теме нет новых непрочитанных сообщений. Держать дистанцию / La giusta distanza (2007) DVDRip от Киномагия

3 | 0

1.37 ГБ

В этой теме нет новых непрочитанных сообщений. Рокировка в длинную сторону (1969) DVDRip-AVC от Youtracker

3 | 11

743.44 МБ

В этой теме нет новых непрочитанных сообщений. Рокировка в длинную сторону (1969) DVDRip от Youtracker

7 | 3

745.21 МБ

В этой теме нет новых непрочитанных сообщений. Рокировка в длинную сторону (1969) DVDRip от Youtracker

10 | 8

1.46 ГБ

В этой теме нет новых непрочитанных сообщений. Маврикий Флавий - Тактика и стратегия (1903) PDF

14 | 6

1.99 МБ




Вы не можете начинать темы
Вы не можете отвечать на сообщения
Вы не можете редактировать свои сообщения
Вы не можете удалять свои сообщения
Вы не можете добавлять вложения

Перейти:  
Для Мосгорсуда, Роскомнадзора и рекламодателей: mosgorsud-torrent[собачка]yandex.ru
 Вход
ppkBB3cker v.2 © 2008-2014 @ PPK
[ Time : 0.036s | 15 Queries | GZIP : Off ]

Торрент трекер RUTOR.IN, Не можете зайти на rutor.org? Какой новый адрес рутор? Какое зеркало рутор? Не работает rutor.org и зеркала? Тогда наш торрент специально для вас. Rutor.in неофициальное зеркало rutor. В случае если у Вас заблокирован rutor или вдруг Вы не можете на него зайти, то Вы без труда сможете скачать бесплатно и без рекламы последние новинки кино, игр, сериалов и прочего у нас, на Rutor.in. Не нужно использовать прокси, чтобы зайти на рутор, достаточно воспользоваться нашим ресурсом. Все новые фильмы, игры, сериалы, книги и музыка за 2013 и 2014 годы через торрент бесплатно. Скачивайте фильмы в хорошем качестве, игры для пк, xbox, playstation без регистрации. У нас вы найдете новые Зарубежные сериалы и Русские сериалы 2013, 2014, 2015 годов. Оставайтесь с нами, качайте любимые фильмы, игры, сериалы, книги и музыку.