img image001 image001 image001 image001 image001 image001 image001 image001 image001 image001 image001 image001 image001 image001 image001

Planets Sun Sun Sun
Статистика раздачи
Автор: Nickolas3434 | Размер: 1.09 ГБ | Добавлен: 04 окт 2015
Раздают: 64    Качают: 8
Скачать торрент
Скачать торрент
Описание торрента

СообщениеДобавлено: 04 окт 2015 

Страна: СССР
Производство: Киевская к/ст
Жанр: военный, боевик, приключения
Год выпуска: 1950
Продолжительность: 01:30:40
Перевод: Не требуется
Cубтитры: нет
Оригинальная аудиодорожка: русский
Режиссер: Владимир Браун
В ролях:
Николай Тимофеев, Аркадий Толбузин, Александр Гречаный, Сергей Гурзо (старший), Андрей Сова, Вячеслав Тихонов, Караман Мгеладзе, Георгий Юматов, Дмитрий Костенко, Виктор Авдюшко, Виктор Добровольский, Виктор Миронов, Леонид Кмит, Элина Быстрицкая, Лидия Драновская, Вероника Васильева, Елена Егорова, Лев Фенин, Михаил Белоусов, Сергей Петров, Олег Смирнов (II), Лаврентий Масоха, Пётр Соболевский, Владимир Борискин...
Полный список актёров
Описание:
Советские подводные лодки уходят в учебное плавание. Это привлекает внимание разведки одной из капиталистических стран. Через некоторое время одна из наших лодок подрывается на мине и ложится на грунт. Четко выполняя приказы командира, экипаж принимается за ликвидацию повреждений...
Но незадолго до этих событий в районе учений появилась и действует другая подводная лодка…






Источник: DVD5 R5
Качество видео: DVDRip
Формат видео: AVI
Видео: 688x512 (4:3), 25 fps, XviD ~ 1517 kbps avg, 0.172 bit/pixel
Аудио: 48 kHz, Dolby Digital AC3 2.0, 192 kbps
Раздача от:
Общее
Полное имя : V.mirnye.dni.1950.DVDRip_[New-team]_by_AVP_Studio.avi
Формат : AVI
Формат/Информация : Audio Video Interleave
Размер файла : 1,09 Гбайт
Продолжительность : 1 ч. 30 м.
Общий поток : 1718 Кбит/сек
Программа кодирования : VirtualDubMod 1.5.10.3 | www.virtualdub-fr.org || (build 2550/release)
Библиотека кодирования : VirtualDubMod build 2550/release
Видео
Идентификатор : 0
Формат : MPEG-4 Visual
Профиль формата : Advanced Simple@L5
Параметр BVOP формата : 1
Параметр QPel формата : Нет
Параметр GMC формата : Без точки перехода
Параметр матрицы формата : Выборочная
Идентификатор кодека : XVID
Идентификатор кодека/Подсказка : XviD
Продолжительность : 1 ч. 30 м.
Битрейт : 1517 Кбит/сек
Ширина : 688 пикселей
Высота : 512 пикселей
Соотношение сторон : 4:3
Частота кадров : 25,000 кадров/сек
Цветовое пространство : YUV
Субдискретизация насыщенности : 4:2:0
Битовая глубина : 8 бит
Тип развёртки : Прогрессивная
Метод сжатия : С потерями
Бит/(Пиксели*Кадры) : 0.172
Размер потока : 984 Мбайт (88%)
Библиотека кодирования : XviD 73
Аудио
Идентификатор : 1
Формат : AC-3
Формат/Информация : Audio Coding 3
Расширение режима : CM (complete main)
Параметр Endianness формата : Big
Идентификатор кодека : 2000
Продолжительность : 1 ч. 30 м.
Вид битрейта : Постоянный
Битрейт : 192 Кбит/сек
Каналы : 2 канала
Расположение каналов : Front: L R
Частота : 48,0 КГц
Метод сжатия : С потерями
Размер потока : 125 Мбайт (11%)
Выравнивание : Разделение по промежуткам
Продолжительность промежутка : 40 мс. (1,00 видеокадр)
Время предзагрузки промежутка : 500 мс





   Похожие торренты   Торрент   Размер 
В этой теме нет новых непрочитанных сообщений. В мирные дни (1950) DVDRip от New-Team

8 | 1

744.93 МБ

В этой теме нет новых непрочитанных сообщений. В мирные дни (1950) DVDRip-AVC от New-Team

54 | 5

1.09 ГБ

В этой теме нет новых непрочитанных сообщений. Подводная лодка Т-9 + Четвертый перископ + Морской ястреб + В мирные дни (1939-1950) DVDRip от Generalfilm

22 | 9

2.75 ГБ

В этой теме нет новых непрочитанных сообщений. В мирные дни / Командир корабля (1950 - 1954) DVD5

38 | 15

4.37 ГБ

В этой теме нет новых непрочитанных сообщений. Мусоргский (1950) DVDRip-AVC от New-Team

17 | 2

1.46 ГБ

В этой теме нет новых непрочитанных сообщений. Мусоргский (1950) DVDRip-AVC от New-Team

19 | 0

1.46 ГБ

В этой теме нет новых непрочитанных сообщений. В степи (1950) DVDRip от New-Team

63 | 4

744.33 МБ




Вы не можете начинать темы
Вы не можете отвечать на сообщения
Вы не можете редактировать свои сообщения
Вы не можете удалять свои сообщения
Вы не можете добавлять вложения

Перейти:  
Для Мосгорсуда, Роскомнадзора и рекламодателей: mosgorsud-torrent[собачка]yandex.ru
 Вход
ppkBB3cker v.2 © 2008-2014 @ PPK
[ Time : 0.037s | 15 Queries | GZIP : Off ]

Торрент трекер RUTOR.IN, Не можете зайти на rutor.org? Какой новый адрес рутор? Какое зеркало рутор? Не работает rutor.org и зеркала? Тогда наш торрент специально для вас. Rutor.in неофициальное зеркало rutor. В случае если у Вас заблокирован rutor или вдруг Вы не можете на него зайти, то Вы без труда сможете скачать бесплатно и без рекламы последние новинки кино, игр, сериалов и прочего у нас, на Rutor.in. Не нужно использовать прокси, чтобы зайти на рутор, достаточно воспользоваться нашим ресурсом. Все новые фильмы, игры, сериалы, книги и музыка за 2013 и 2014 годы через торрент бесплатно. Скачивайте фильмы в хорошем качестве, игры для пк, xbox, playstation без регистрации. У нас вы найдете новые Зарубежные сериалы и Русские сериалы 2013, 2014, 2015 годов. Оставайтесь с нами, качайте любимые фильмы, игры, сериалы, книги и музыку.