img image001 image001 image001 image001 image001 image001 image001 image001 image001 image001 image001 image001 image001 image001 image001

Planets Sun Sun Sun
Статистика раздачи
Автор: Nickolas3434 | Размер: 1.32 ГБ | Добавлен: 04 окт 2015
Раздают: 358    Качают: 14
Скачать торрент
Скачать торрент
Описание торрента

СообщениеДобавлено: 04 окт 2015 


Информация о фильме
Название: Любовь на четырех колесах
Год выхода: 2015
Режиссер: Сергей Влади
В ролях: Евгения Лоза, Виктор Логинов, Кирилл Жандаров, Светлана Колпакова, Александр Никольский (II)
О фильме:
Семейная жизнь Липы, работницы таксопарка, не задалась. Муж Костя давно потерял интерес к «рабочей пчелке» и почти не скрывает своих измен. Последней каплей становится известие о том, что любовница Кости ждет ребенка. Липа отпускает мужа и готовится начать новую жизнь.
К несчастью, после развода Костя возвращается снова. Помыкавшись по съёмным квартирам, он намерен поселиться у Липы в квартире вместе со своей любовницей…
Удастся ли доброй Липе противостоять людской подлости и отыскать своё заблудившееся счастье?..
Страна: Россия
Продолжительность: 1:34:08
Перевод: Не требуется
Файл
Кодек: XviD
Качество: SATRip
Видео: 720x400 25.00fps 1800kbps
Звук: 48000Hz stereo 192kbps

Общее
Полное имя : D:Lyubov.Na.Chetyreh.Kolesah.SATRip.avi
Формат : AVI
Формат/Информация : Audio Video Interleave
Размер файла : 1,32 Гбайт
Продолжительность : 1 ч. 34 м.
Общий поток : 2002 Кбит/сек
Программа кодирования : VirtualDubMod 1.5.10.3 | www.virtualdub-fr.org || (build 2550/release)
Библиотека кодирования : VirtualDubMod build 2550/release
Видео
Идентификатор : 0
Формат : MPEG-4 Visual
Профиль формата : Advanced Simple@L5
Параметр BVOP формата : 2
Параметр QPel формата : Нет
Параметр GMC формата : Без точки перехода
Параметр матрицы формата : Default (H.263)
Идентификатор кодека : XVID
Идентификатор кодека/Подсказка : XviD
Продолжительность : 1 ч. 34 м.
Битрейт : 1800 Кбит/сек
Ширина : 720 пикселей
Высота : 400 пикселей
Соотношение сторон : 16:9
Частота кадров : 25,000 кадров/сек
Цветовое пространство : YUV
Субдискретизация насыщенности : 4:2:0
Битовая глубина : 8 бит
Тип развёртки : Прогрессивная
Метод сжатия : С потерями
Бит/(Пиксели*Кадры) : 0.250
Размер потока : 1,18 Гбайт (90%)
Библиотека кодирования : XviD 1.2.1 (UTC 2008-12-04)
Аудио
Идентификатор : 1
Формат : AC-3
Формат/Информация : Audio Coding 3
Расширение режима : CM (complete main)
Параметр Endianness формата : Big
Идентификатор кодека : 2000
Продолжительность : 1 ч. 34 м.
Вид битрейта : Постоянный
Битрейт : 192 Кбит/сек
Каналы : 2 канала
Расположение каналов : Front: L R
Частота : 48,0 КГц
Метод сжатия : С потерями
Размер потока : 129 Мбайт (10%)
Выравнивание : Разделение по промежуткам
Продолжительность промежутка : 40 мс. (1,00 видеокадр)
Время предзагрузки промежутка : 500 мс.

Релиз от:



   Похожие торренты   Торрент   Размер 
В этой теме нет новых непрочитанных сообщений. Любовь на четырех колесах (2015) HDTVRip | КПК

77 | 4

428.57 МБ

В этой теме нет новых непрочитанных сообщений. Любовь на четырех колесах (2015) HDTVRip от Files-x

3256 | 176

1.37 ГБ

В этой теме нет новых непрочитанных сообщений. Любовь на четырех колесах (2015) HDTVRip от Шкипер

1135 | 61

745.95 МБ

В этой теме нет новых непрочитанных сообщений. Любовь на четырех колесах (2015) HDTVRip-AVC от Files-x

1133 | 66

1.37 ГБ

В этой теме нет новых непрочитанных сообщений. Любовь на четырех колесах (2015) HDTV 1080i

190 | 27

5.61 ГБ

В этой теме нет новых непрочитанных сообщений. Любовь на четырех колесах (2015) WEB-DLRip-AVC от Files-x

87 | 4

1.37 ГБ

В этой теме нет новых непрочитанных сообщений. Любовь на четырех колесах (2015) WEB-DLRip от Files-x

48 | 6

1.36 ГБ




Вы не можете начинать темы
Вы не можете отвечать на сообщения
Вы не можете редактировать свои сообщения
Вы не можете удалять свои сообщения
Вы не можете добавлять вложения

Перейти:  
Для Мосгорсуда, Роскомнадзора и рекламодателей: mosgorsud-torrent[собачка]yandex.ru
 Вход
ppkBB3cker v.2 © 2008-2014 @ PPK
[ Time : 1.486s | 14 Queries | GZIP : Off ]

Торрент трекер RUTOR.IN, Не можете зайти на rutor.org? Какой новый адрес рутор? Какое зеркало рутор? Не работает rutor.org и зеркала? Тогда наш торрент специально для вас. Rutor.in неофициальное зеркало rutor. В случае если у Вас заблокирован rutor или вдруг Вы не можете на него зайти, то Вы без труда сможете скачать бесплатно и без рекламы последние новинки кино, игр, сериалов и прочего у нас, на Rutor.in. Не нужно использовать прокси, чтобы зайти на рутор, достаточно воспользоваться нашим ресурсом. Все новые фильмы, игры, сериалы, книги и музыка за 2013 и 2014 годы через торрент бесплатно. Скачивайте фильмы в хорошем качестве, игры для пк, xbox, playstation без регистрации. У нас вы найдете новые Зарубежные сериалы и Русские сериалы 2013, 2014, 2015 годов. Оставайтесь с нами, качайте любимые фильмы, игры, сериалы, книги и музыку.