img image001 image001 image001 image001 image001 image001 image001 image001 image001 image001 image001 image001 image001 image001 image001

Planets Sun Sun Sun
Статистика раздачи
Автор: Nickolas3434 | Размер: 745.95 МБ | Добавлен: 05 окт 2015
Раздают: 1135    Качают: 61
Скачать торрент
Скачать торрент
Описание торрента

СообщениеДобавлено: 05 окт 2015 


Информация о фильме
Название: Любовь на четырех колесах
Год выхода: 2015
Жанр: Мелодрама
Режиссер: Сергей Влади
В ролях: Евгения Лоза, Виктор Логинов, Кирилл Жандаров, Светлана Колпакова, Александр Никольский, Екатерина Большакова
О фильме:
Семейная жизнь Липы, работницы таксопарка, не задалась. Муж Костя давно потерял интерес к «рабочей пчелке» и почти не скрывает своих измен. Последней каплей становится известие о том, что любовница Кости ждет ребенка. Липа отпускает мужа и готовится начать новую жизнь. К несчастью, после развода Костя возвращается снова. Помыкавшись по съёмным квартирам, он намерен поселиться у Липы в квартире вместе со своей любовницей. Удастся ли доброй Липе противостоять людской подлости и отыскать своё заблудившееся счастье?

Страна: Россия
Студия: Кинокомпания Русское
Продолжительность: 01:34:50
Перевод: Не требуется
Файл
Кодек: XviD
Качество: HDTVRip
Видео: 624x352 (1.77:1), 25 fps, XviD build 73 ~961 kbps avg, 0.17 bit/pixel
Звук: 48 kHz, MPEG Layer 3, 2 ch, ~128.00 kbps avg
Субтитры: Отсутствуют
Семпл
General
Complete name : D:ТоррентыМои рипыЛюбовь на четырех колесахLyubov.na.chetyreh.kolesah.2015.HDTVRip.shkiper.avi
Format : AVI
Format/Info : Audio Video Interleave
File size : 746 MiB
Duration : 1h 34mn
Overall bit rate : 1 100 Kbps
Writing application : VirtualDubMod 1.5.10.3 | www.virtualdub-fr.org || (build 2550/release)
Writing library : VirtualDubMod build 2550/release
Video
ID : 0
Format : MPEG-4 Visual
Format profile : Advanced Simple@L5
Format settings, BVOP : 1
Format settings, QPel : No
Format settings, GMC : No warppoints
Format settings, Matrix : Custom
Codec ID : XVID
Codec ID/Hint : XviD
Duration : 1h 34mn
Bit rate : 962 Kbps
Width : 624 pixels
Height : 352 pixels
Display aspect ratio : 16:9
Frame rate : 25.000 fps
Color space : YUV
Chroma subsampling : 4:2:0
Bit depth : 8 bits
Scan type : Progressive
Compression mode : Lossy
Bits/(Pixel*Frame) : 0.175
Stream size : 653 MiB (87%)
Writing library : XviD 73
Audio
ID : 1
Format : MPEG Audio
Format version : Version 1
Format profile : Layer 3
Mode : Joint stereo
Mode extension : MS Stereo
Codec ID : 55
Codec ID/Hint : MP3
Duration : 1h 34mn
Bit rate mode : Constant
Bit rate : 128 Kbps
Channel(s) : 2 channels
Sampling rate : 48.0 KHz
Compression mode : Lossy
Stream size : 86.8 MiB (12%)
Alignment : Aligned on interleaves
Interleave, duration : 40 ms (1.00 video frame)
Interleave, preload duration : 504 ms
Writing library : LAME3.99r
Encoding settings : -m j -V 4 -q 2 -lowpass 17 -b 128

Релиз от:



   Похожие торренты   Торрент   Размер 
В этой теме нет новых непрочитанных сообщений. Любовь на четырех колесах (2015) HDTVRip | КПК

77 | 4

428.57 МБ

В этой теме нет новых непрочитанных сообщений. Любовь на четырех колесах (2015) HDTVRip-AVC от Files-x

1133 | 66

1.37 ГБ

В этой теме нет новых непрочитанных сообщений. Любовь на четырех колесах (2015) HDTVRip от Files-x

3256 | 176

1.37 ГБ

В этой теме нет новых непрочитанных сообщений. Любовь на четырех колесах (2015) HDTVRip 720p от MediaClub

668 | 49

2.43 ГБ

В этой теме нет новых непрочитанных сообщений. Любовь на четырех колесах (2015) SATRip

358 | 14

1.32 ГБ

В этой теме нет новых непрочитанных сообщений. Любовь на четырех колесах (2015) WEB-DLRip от Files-x

48 | 6

1.36 ГБ

В этой теме нет новых непрочитанных сообщений. Любовь на четырех колесах (2015) HDTV 1080i

190 | 27

5.61 ГБ




Вы не можете начинать темы
Вы не можете отвечать на сообщения
Вы не можете редактировать свои сообщения
Вы не можете удалять свои сообщения
Вы не можете добавлять вложения

Перейти:  
Для Мосгорсуда, Роскомнадзора и рекламодателей: mosgorsud-torrent[собачка]yandex.ru
 Вход
ppkBB3cker v.2 © 2008-2014 @ PPK
[ Time : 0.020s | 16 Queries | GZIP : Off ]

Торрент трекер RUTOR.IN, Не можете зайти на rutor.org? Какой новый адрес рутор? Какое зеркало рутор? Не работает rutor.org и зеркала? Тогда наш торрент специально для вас. Rutor.in неофициальное зеркало rutor. В случае если у Вас заблокирован rutor или вдруг Вы не можете на него зайти, то Вы без труда сможете скачать бесплатно и без рекламы последние новинки кино, игр, сериалов и прочего у нас, на Rutor.in. Не нужно использовать прокси, чтобы зайти на рутор, достаточно воспользоваться нашим ресурсом. Все новые фильмы, игры, сериалы, книги и музыка за 2013 и 2014 годы через торрент бесплатно. Скачивайте фильмы в хорошем качестве, игры для пк, xbox, playstation без регистрации. У нас вы найдете новые Зарубежные сериалы и Русские сериалы 2013, 2014, 2015 годов. Оставайтесь с нами, качайте любимые фильмы, игры, сериалы, книги и музыку.