img image001 image001 image001 image001 image001 image001 image001 image001 image001 image001 image001 image001 image001 image001 image001

Planets Sun Sun Sun
Статистика раздачи
Автор: Nickolas3434 | Размер: 745.28 МБ | Добавлен: 08 окт 2015
Раздают: 13    Качают: 2
Скачать торрент
Скачать торрент
Описание торрента

СообщениеДобавлено: 08 окт 2015 

Страна: СССР
Производство: Мосфильм

Жанр: военный, драма
Год выпуска: 1983
Продолжительность: 01:25:01

Перевод: Не требуется
Cубтитры: нет
Оригинальная аудиодорожка: русский

Режиссер: Олег Бондарёв, Вера Строева

В ролях:
Людмила Ярошенко, Юрий Соколов (VI), Николай Мерзликин, Валерий Фролов, Павел Махотин, Владимир Яканин, Ирина Щукина, Алексей Горобченко, М. Подоплелов, О. Ирбе, Роман Хомятов, Юрий Веялис, Владимир Климентьев, Анатолий Шаляпин, Анатолий Скорякин, Олег Гречихо, Ваня Трошин, Катя Бондарева, Т. Тризнюк, Аня Парфененко, Марина Бояринова...
Полный список актёров

Описание:
Великая Отечественная война. Инженер авиаполка Берестова знакомится с летчиком-истребителем Ардатовым, жена которого погибла. Теперь он должен думать о том, как одному воспитать своих двоих детей. Однако Арбатов не доживет до победы. После войны Берестова находит его детей и усыновляет их...





Источник: DVB
Качество видео: SATRip
Формат видео: AVI

Видео: 704x288 (2,40:1), 25 fps, XviD ~ 1024 kbps avg, 0.202 bit/pixel
Аудио: 48 kHz, Dolby Digital AC3 2.0, 192 kbps

Раздача от:
Общее
Полное имя : Buket.fialok.1983.SATRip-745_[New-team]_by_AVP_Studio.avi
Формат : AVI
Формат/Информация : Audio Video Interleave
Размер файла : 745 Мбайт
Продолжительность : 1 ч. 25 м.
Общий поток : 1226 Кбит/сек
Программа кодирования : VirtualDubMod 1.5.10.3 | www.virtualdub-fr.org || (build 2550/release)
Библиотека кодирования : VirtualDubMod build 2550/release

Видео
Идентификатор : 0
Формат : MPEG-4 Visual
Профиль формата : Advanced Simple@L5
Параметр BVOP формата : 1
Параметр QPel формата : Нет
Параметр GMC формата : Без точки перехода
Параметр матрицы формата : Выборочная
Идентификатор кодека : XVID
Идентификатор кодека/Подсказка : XviD
Продолжительность : 1 ч. 25 м.
Битрейт : 1024 Кбит/сек
Ширина : 704 пикселя
Высота : 288 пикселей
Соотношение сторон : 2,40:1
Частота кадров : 25,000 кадров/сек
Цветовое пространство : YUV
Субдискретизация насыщенности : 4:2:0
Битовая глубина : 8 бит
Тип развёртки : Прогрессивная
Метод сжатия : С потерями
Бит/(Пиксели*Кадры) : 0.202
Размер потока : 623 Мбайт (84%)
Библиотека кодирования : XviD 73

Аудио
Идентификатор : 1
Формат : AC-3
Формат/Информация : Audio Coding 3
Расширение режима : CM (complete main)
Параметр Endianness формата : Big
Идентификатор кодека : 2000
Продолжительность : 1 ч. 25 м.
Вид битрейта : Постоянный
Битрейт : 192 Кбит/сек
Каналы : 2 канала
Расположение каналов : Front: L R
Частота : 48,0 КГц
Метод сжатия : С потерями
Размер потока : 117 Мбайт (16%)
Выравнивание : Разделение по промежуткам
Продолжительность промежутка : 40 мс. (1,00 видеокадр)
Время предзагрузки промежутка : 500 мс





   Похожие торренты   Торрент   Размер 
В этой теме нет новых непрочитанных сообщений. Букет фиалок (1983) SATRip-AVC от New-Team

23 | 14

1.09 ГБ

В этой теме нет новых непрочитанных сообщений. Букет (2013) SatRip

7 | 3

697.46 МБ

В этой теме нет новых непрочитанных сообщений. Букет (2013) SatRip

9 | 4

1.26 ГБ

В этой теме нет новых непрочитанных сообщений. Продавщица фиалок / La violetera (1958) DVD5

5 | 5

4.29 ГБ

В этой теме нет новых непрочитанных сообщений. Продавщица фиалок / La violetera (1958) DVD5 | P

0 | 0

4.29 ГБ

В этой теме нет новых непрочитанных сообщений. Продавщица фиалок / La violetera (1958) DVDRip от Киномагия

55 | 4

1.37 ГБ

В этой теме нет новых непрочитанных сообщений. Продавщица фиалок / La violetera (1958) DVDRip-AVC от Киномагия

0 | 3

1.53 ГБ




Вы не можете начинать темы
Вы не можете отвечать на сообщения
Вы не можете редактировать свои сообщения
Вы не можете удалять свои сообщения
Вы не можете добавлять вложения

Перейти:  
Для Мосгорсуда, Роскомнадзора и рекламодателей: mosgorsud-torrent[собачка]yandex.ru
 Вход
ppkBB3cker v.2 © 2008-2014 @ PPK
[ Time : 0.054s | 16 Queries | GZIP : Off ]

Торрент трекер RUTOR.IN, Не можете зайти на rutor.org? Какой новый адрес рутор? Какое зеркало рутор? Не работает rutor.org и зеркала? Тогда наш торрент специально для вас. Rutor.in неофициальное зеркало rutor. В случае если у Вас заблокирован rutor или вдруг Вы не можете на него зайти, то Вы без труда сможете скачать бесплатно и без рекламы последние новинки кино, игр, сериалов и прочего у нас, на Rutor.in. Не нужно использовать прокси, чтобы зайти на рутор, достаточно воспользоваться нашим ресурсом. Все новые фильмы, игры, сериалы, книги и музыка за 2013 и 2014 годы через торрент бесплатно. Скачивайте фильмы в хорошем качестве, игры для пк, xbox, playstation без регистрации. У нас вы найдете новые Зарубежные сериалы и Русские сериалы 2013, 2014, 2015 годов. Оставайтесь с нами, качайте любимые фильмы, игры, сериалы, книги и музыку.
cron